тег Завершён | Captain America: The First Avenger | Архив

Скачать через торрент музыку бесплатно без регистрации torrent

Статистика раздачи
Размер:  2.22 GB   |    Зарегистрирован:  2 месяца 6 дней   |    .torrent скачан:  49 раз   |   
Раздают:  1  
   
загрузка...
 
Автор Сообщение

Galfimbul

avatar Galfimbul


Quincy Jones - The Cinema Of Quincy Jones

Жанр: Score, Jazz
Носитель: CD(x6)
Страна-производитель диска (релиза): France
Год издания: 2016
Издатель (лейбл): Decca
Номер по каталогу: 537 329-6
Страна исполнителя (группы): USA
Аудиокодек: FLAC (*.flac)
Тип рипа: image+.cue
Битрейт аудио: lossless
Продолжительность: 06:25:03
Источник (релизер): improbab (Redacted)
Наличие сканов в содержимом раздачи: да
01. The Pawnbroker: Theme from The Pawnbroker [3:11]
02. The Pawnbroker: Main Title [3:46]
03. The Pawnbroker: Harlem Drive [2:00]
04. The Pawnbroker: The Naked Truth [4:13]
05. The Pawnbroker: Otez' Night Off [5:04]
06. The Pawnbroker: Theme from The Pawnbroker (instrumental version) [4:11]
07. The Pawnbroker: How Come, You People! (dialogue by Rod Steiger) [2:53]
08. The Pawnbroker: Rack 'Em Up [2:43]
09. The Pawnbroker: Death Scene [5:04]
10. The Pawnbroker: End Title [3:11]
11. The Pawnbroker: Theme from The Pawnbroker [2:36]
12. The Slender Thread: Preludium (Main Title Part II) [2:27]
13. The Slender Thread: Main Theme (Main Title Part I) [2:06]
14. The Slender Thread: Threadbare (Main Title Part III) [2:24]
15. The Slender Thread: Aftermath [2:46]
16. The Slender Thread: Fox's Sugar [3:32]
17. The Slender Thread: Funny Farm [1:36]
18. The Slender Thread: Theme for Inga [2:36]
19. The Slender Thread: Psychosis [3:13]
20. The Slender Thread: No Places to Go [3:13]
21. The Slender Thread: Big Sir [2:14]

Продолжительность: 01:04:59
<div class="sp-wrap">
<div class="sp-head folded">Лог создания рипа</div>
<div class="sp-body">

X Lossless Decoder version 20170729 (150.3)

XLD extraction logfile from 2017-11-05 10:34:14 +0100

Quincy Jones / The Cinema of Quincy Jones

Used drive : MATSHITA BD-MLT UJ272 (revision 1.01)Media type : Pressed CD

Ripper mode : XLD Secure RipperDisable audio cache : OK for the drive with a cache less than 1375KiBMake use of C2 pointers : NORead offset correction : 103Max retry count : 20Gap status : Analyzed, Appended (except HTOA)

TOC of the extracted CD Track | Start | Length | Start sector | End sector --------------------------------------------------------- 1 | 00:00:00 | 03:11:18 | 0 | 14342 2 | 03:11:18 | 03:46:11 | 14343 | 31303 3 | 06:57:29 | 01:59:45 | 31304 | 40273 4 | 08:56:74 | 04:13:18 | 40274 | 59266 5 | 13:10:17 | 05:04:00 | 59267 | 82066 6 | 18:14:17 | 04:10:38 | 82067 | 100854 7 | 22:24:55 | 02:53:07 | 100855 | 113836 8 | 25:17:62 | 02:43:18 | 113837 | 126079 9 | 28:01:05 | 05:03:74 | 126080 | 148878 10 | 33:05:04 | 03:11:30 | 148879 | 163233 11 | 36:16:34 | 02:36:22 | 163234 | 174955 12 | 38:52:56 | 02:26:73 | 174956 | 185978 13 | 41:19:54 | 02:06:27 | 185979 | 195455 14 | 43:26:06 | 02:23:51 | 195456 | 206231 15 | 45:49:57 | 02:45:52 | 206232 | 218658 16 | 48:35:34 | 03:31:46 | 218659 | 234529 17 | 52:07:05 | 01:36:16 | 234530 | 241745 18 | 53:43:21 | 02:35:40 | 241746 | 253410 19 | 56:18:61 | 03:13:37 | 253411 | 267922 20 | 59:32:23 | 03:13:29 | 267923 | 282426 21 | 62:45:52 | 02:13:49 | 282427 | 292450

AccurateRip Summary (DiscID: 003465b6-0316de80-4b0f3b15) Track 01 : OK (v2, confidence 3/3) Track 02 : OK (v2, confidence 3/3) Track 03 : OK (v2, confidence 3/3) Track 04 : OK (v2, confidence 3/3) Track 05 : OK (v2, confidence 3/3) Track 06 : OK (v2, confidence 3/3) Track 07 : OK (v2, confidence 3/3) Track 08 : OK (v2, confidence 3/3) Track 09 : OK (v2, confidence 3/3) Track 10 : OK (v2, confidence 3/3) Track 11 : OK (v2, confidence 3/3) Track 12 : OK (v2, confidence 3/3) Track 13 : OK (v2, confidence 3/3) Track 14 : OK (v2, confidence 3/3) Track 15 : OK (v2, confidence 3/3) Track 16 : OK (v2, confidence 3/3) Track 17 : OK (v2, confidence 3/3) Track 18 : OK (v2, confidence 3/3) Track 19 : OK (v2, confidence 3/3) Track 20 : OK (v2, confidence 3/3) Track 21 : OK (v2, confidence 3/3) ->All tracks accurately ripped.

All Tracks Album gain : -3.56 dB Peak : 0.977203 Statistics Read error : 0 Jitter error (maybe fixed) : 0 Retry sector count : 0 Damaged sector count : 0

Track 01 Filename : /Volumes/osec/XLDs/Quincy Jones - The Cinema of Quincy Jones (2016) {537 329-6} [FLAC]/01 - 01 - The Pawnbroker: Theme from The Pawnbroker.flac /Volumes/osec/XLDs/Quincy Jones - The Cinema of Quincy Jones (2016) {537 329-6} [V0]/01 - 01 - The Pawnbroker: Theme from The Pawnbroker.mp3 /Volumes/osec/XLDs/Quincy Jones - The Cinema of Quincy Jones (2016) {537 329-6} [320]/01 - 01 - The Pawnbroker: Theme from The Pawnbroker.mp3 Pre-gap length : 00:02:00

Track gain : -5.38 dB Peak : 0.904205 CRC32 hash (test run) : E37ECD29 CRC32 hash : E37ECD29 CRC32 hash (skip zero) : 4B611E52 AccurateRip v1 signature : 3F29765E AccurateRip v2 signature : 133B6C07 ->Accurately ripped (v2, confidence 3/3) Statistics Read error : 0 Jitter error (maybe fixed) : 0 Retry sector count : 0 Damaged sector count : 0

Track 02 Filename : /Volumes/osec/XLDs/Quincy Jones - The Cinema of Quincy Jones (2016) {537 329-6} [FLAC]/01 - 02 - The Pawnbroker: Main Title.flac /Volumes/osec/XLDs/Quincy Jones - The Cinema of Quincy Jones (2016) {537 329-6} [V0]/01 - 02 - The Pawnbroker: Main Title.mp3 /Volumes/osec/XLDs/Quincy Jones - The Cinema of Quincy Jones (2016) {537 329-6} [320]/01 - 02 - The Pawnbroker: Main Title.mp3

Track gain : -1.88 dB Peak : 0.817932 CRC32 hash (test run) : A9EA2D5F CRC32 hash : A9EA2D5F CRC32 hash (skip zero) : 655E14B4 AccurateRip v1 signature : 08725F14 AccurateRip v2 signature : FB633A5B ->Accurately ripped (v2, confidence 3/3) Statistics Read error : 0 Jitter error (maybe fixed) : 0 Retry sector count : 0 Damaged sector count : 0

Track 03 Filename : /Volumes/osec/XLDs/Quincy Jones - The Cinema of Quincy Jones (2016) {537 329-6} [FLAC]/01 - 03 - The Pawnbroker: Harlem Drive.flac /Volumes/osec/XLDs/Quincy Jones - The Cinema of Quincy Jones (2016) {537 329-6} [V0]/01 - 03 - The Pawnbroker: Harlem Drive.mp3 /Volumes/osec/XLDs/Quincy Jones - The Cinema of Quincy Jones (2016) {537 329-6} [320]/01 - 03 - The Pawnbroker: Harlem Drive.mp3

Track gain : -3.72 dB Peak : 0.904205 CRC32 hash (test run) : E1469432 CRC32 hash : E1469432 CRC32 hash (skip zero) : D3928E9F AccurateRip v1 signature : 3FF21F14 AccurateRip v2 signature : 70369353 ->Accurately ripped (v2, confidence 3/3) Statistics Read error : 0 Jitter error (maybe fixed) : 0 Retry sector count : 0 Damaged sector count : 0

Track 04 Filename : /Volumes/osec/XLDs/Quincy Jones - The Cinema of Quincy Jones (2016) {537 329-6} [FLAC]/01 - 04 - The Pawnbroker: The Naked Truth.flac /Volumes/osec/XLDs/Quincy Jones - The Cinema of Quincy Jones (2016) {537 329-6} [V0]/01 - 04 - The Pawnbroker: The Naked Truth.mp3 /Volumes/osec/XLDs/Quincy Jones - The Cinema of Quincy Jones (2016) {537 329-6} [320]/01 - 04 - The Pawnbroker: The Naked Truth.mp3

Track gain : -0.28 dB Peak : 0.904297 CRC32 hash (test run) : AAAEA9A3 CRC32 hash : AAAEA9A3 CRC32 hash (skip zero) : 3FB5D4C6 AccurateRip v1 signature : 0E4122A3 AccurateRip v2 signature : 836B6E6B ->Accurately ripped (v2, confidence 3/3) Statistics Read error : 0 Jitter error (maybe fixed) : 0 Retry sector count : 0 Damaged sector count : 0

Track 05 Filename : /Volumes/osec/XLDs/Quincy Jones - The Cinema of Quincy Jones (2016) {537 329-6} [FLAC]/01 - 05 - The Pawnbroker: Otez' Night Off.flac /Volumes/osec/XLDs/Quincy Jones - The Cinema of Quincy Jones (2016) {537 329-6} [V0]/01 - 05 - The Pawnbroker: Otez' Night Off.mp3 /Volumes/osec/XLDs/Quincy Jones - The Cinema of Quincy Jones (2016) {537 329-6} [320]/01 - 05 - The Pawnbroker: Otez' Night Off.mp3

Track gain : -4.57 dB Peak : 0.905548 CRC32 hash (test run) : 40610B85 CRC32 hash : 40610B85 CRC32 hash (skip zero) : 38FEC9EC AccurateRip v1 signature : 1A40869A AccurateRip v2 signature : 51315E4B ->Accurately ripped (v2, confidence 3/3) Statistics Read error : 0 Jitter error (maybe fixed) : 0 Retry sector count : 0 Damaged sector count : 0

Track 06 Filename : /Volumes/osec/XLDs/Quincy Jones - The Cinema of Quincy Jones (2016) {537 329-6} [FLAC]/01 - 06 - The Pawnbroker: Theme from The Pawnbroker (instrumental version).flac /Volumes/osec/XLDs/Quincy Jones - The Cinema of Quincy Jones (2016) {537 329-6} [V0]/01 - 06 - The Pawnbroker: Theme from The Pawnbroker (instrumental version).mp3 /Volumes/osec/XLDs/Quincy Jones - The Cinema of Quincy Jones (2016) {537 329-6} [320]/01 - 06 - The Pawnbroker: Theme from The Pawnbroker (instrumental version).mp3

Track gain : -4.00 dB Peak : 0.904236 CRC32 hash (test run) : BE6F97BD CRC32 hash : BE6F97BD CRC32 hash (skip zero) : 96940C30 AccurateRip v1 signature : FBE1BD42 AccurateRip v2 signature : 765C22B6 ->Accurately ripped (v2, confidence 3/3) Statistics Read error : 0 Jitter error (maybe fixed) : 0 Retry sector count : 0 Damaged sector count : 0

Track 07 Filename : /Volumes/osec/XLDs/Quincy Jones - The Cinema of Quincy Jones (2016) {537 329-6} [FLAC]/01 - 07 - The Pawnbroker: How Come, You People. (dialogue by Rod Steiger).flac /Volumes/osec/XLDs/Quincy Jones - The Cinema of Quincy Jones (2016) {537 329-6} [V0]/01 - 07 - The Pawnbroker: How Come, You People. (dialogue by Rod Steiger).mp3 /Volumes/osec/XLDs/Quincy Jones - The Cinema of Quincy Jones (2016) {537 329-6} [320]/01 - 07 - The Pawnbroker: How Come, You People. (dialogue by Rod Steiger).mp3

Track gain : -4.72 dB Peak : 0.783722 CRC32 hash (test run) : 6803D687 CRC32 hash : 6803D687 CRC32 hash (skip zero) : 51357C60 AccurateRip v1 signature : 3B85E981 AccurateRip v2 signature : 4A82C2A0 ->Accurately ripped (v2, confidence 3/3) Statistics Read error : 0 Jitter error (maybe fixed) : 0 Retry sector count : 0 Damaged sector count : 0

Track 08 Filename : /Volumes/osec/XLDs/Quincy Jones - The Cinema of Quincy Jones (2016) {537 329-6} [FLAC]/01 - 08 - The Pawnbroker: Rack 'Em Up.flac /Volumes/osec/XLDs/Quincy Jones - The Cinema of Quincy Jones (2016) {537 329-6} [V0]/01 - 08 - The Pawnbroker: Rack 'Em Up.mp3 /Volumes/osec/XLDs/Quincy Jones - The Cinema of Quincy Jones (2016) {537 329-6} [320]/01 - 08 - The Pawnbroker: Rack 'Em Up.mp3

Track gain : -3.02 dB Peak : 0.869781 CRC32 hash (test run) : 007F3DA2 CRC32 hash : 007F3DA2 CRC32 hash (skip zero) : 512169D1 AccurateRip v1 signature : F08D22A6 AccurateRip v2 signature : 0F6FC3F9 ->Accurately ripped (v2, confidence 3/3) Statistics Read error : 0 Jitter error (maybe fixed) : 0 Retry sector count : 0 Damaged sector count : 0

Track 09 Filename : /Volumes/osec/XLDs/Quincy Jones - The Cinema of Quincy Jones (2016) {537 329-6} [FLAC]/01 - 09 - The Pawnbroker: Death Scene.flac /Volumes/osec/XLDs/Quincy Jones - The Cinema of Quincy Jones (2016) {537 329-6} [V0]/01 - 09 - The Pawnbroker: Death Scene.mp3 /Volumes/osec/XLDs/Quincy Jones - The Cinema of Quincy Jones (2016) {537 329-6} [320]/01 - 09 - The Pawnbroker: Death Scene.mp3

Track gain : -1.49 dB Peak : 0.869781 CRC32 hash (test run) : 3A715358 CRC32 hash : 3A715358 CRC32 hash (skip zero) : 894EEB70 AccurateRip v1 signature : F32BB4F3 AccurateRip v2 signature : D9DAB81F ->Accurately ripped (v2, confidence 3/3) Statistics Read error : 0 Jitter error (maybe fixed) : 0 Retry sector count : 0 Damaged sector count : 0

Track 10 Filename : /Volumes/osec/XLDs/Quincy Jones - The Cinema of Quincy Jones (2016) {537 329-6} [FLAC]/01 - 10 - The Pawnbroker: End Title.flac /Volumes/osec/XLDs/Quincy Jones - The Cinema of Quincy Jones (2016) {537 329-6} [V0]/01 - 10 - The Pawnbroker: End Title.mp3 /Volumes/osec/XLDs/Quincy Jones - The Cinema of Quincy Jones (2016) {537 329-6} [320]/01 - 10 - The Pawnbroker: End Title.mp3

Track gain : -4.06 dB Peak : 0.869781 CRC32 hash (test run) : 5474062F CRC32 hash : 5474062F CRC32 hash (skip zero) : 5EA07D22 AccurateRip v1 signature : 745810B0 AccurateRip v2 signature : 3E6F44B0 ->Accurately ripped (v2, confidence 3/3) Statistics Read error : 0 Jitter error (maybe fixed) : 0 Retry sector count : 0 Damaged sector count : 0

Track 11 Filename : /Volumes/osec/XLDs/Quincy Jones - The Cinema of Quincy Jones (2016) {537 329-6} [FLAC]/01 - 11 - The Pawnbroker: Theme from The Pawnbroker.flac /Volumes/osec/XLDs/Quincy Jones - The Cinema of Quincy Jones (2016) {537 329-6} [V0]/01 - 11 - The Pawnbroker: Theme from The Pawnbroker.mp3 /Volumes/osec/XLDs/Quincy Jones - The Cinema of Quincy Jones (2016) {537 329-6} [320]/01 - 11 - The Pawnbroker: Theme from The Pawnbroker.mp3

Track gain : -3.97 dB Peak : 0.714630 CRC32 hash (test run) : 06D8273B CRC32 hash : 06D8273B CRC32 hash (skip zero) : B7293704 AccurateRip v1 signature : 6C362613 AccurateRip v2 signature : A55D3DD5 ->Accurately ripped (v2, confidence 3/3) Statistics Read error : 0 Jitter error (maybe fixed) : 0 Retry sector count : 0 Damaged sector count : 0

Track 12 Filename : /Volumes/osec/XLDs/Quincy Jones - The Cinema of Quincy Jones (2016) {537 329-6} [FLAC]/01 - 12 - The Slender Thread: Preludium (Main Title Part II).flac /Volumes/osec/XLDs/Quincy Jones - The Cinema of Quincy Jones (2016) {537 329-6} [V0]/01 - 12 - The Slender Thread: Preludium (Main Title Part II).mp3 /Volumes/osec/XLDs/Quincy Jones - The Cinema of Quincy Jones (2016) {537 329-6} [320]/01 - 12 - The Slender Thread: Preludium (Main Title Part II).mp3

Track gain : -4.41 dB Peak : 0.898926 CRC32 hash (test run) : D74D9D06 CRC32 hash : D74D9D06 CRC32 hash (skip zero) : E00392A7 AccurateRip v1 signature : E470B2FB AccurateRip v2 signature : 9599CC38 ->Accurately ripped (v2, confidence 3/3) Statistics Read error : 0 Jitter error (maybe fixed) : 0 Retry sector count : 0 Damaged sector count : 0

Track 13 Filename : /Volumes/osec/XLDs/Quincy Jones - The Cinema of Quincy Jones (2016) {537 329-6} [FLAC]/01 - 13 - The Slender Thread: Main Theme (Main Title Part I).flac /Volumes/osec/XLDs/Quincy Jones - The Cinema of Quincy Jones (2016) {537 329-6} [V0]/01 - 13 - The Slender Thread: Main Theme (Main Title Part I).mp3 /Volumes/osec/XLDs/Quincy Jones - The Cinema of Quincy Jones (2016) {537 329-6} [320]/01 - 13 - The Slender Thread: Main Theme (Main Title Part I).mp3

Track gain : -3.02 dB Peak : 0.764923 CRC32 hash (test run) : 0C20A792 CRC32 hash : 0C20A792 CRC32 hash (skip zero) : F9E1ADA7 AccurateRip v1 signature : E2A96A50 AccurateRip v2 signature : 2C3E758F ->Accurately ripped (v2, confidence 3/3) Statistics Read error : 0 Jitter error (maybe fixed) : 0 Retry sector count : 0 Damaged sector count : 0

Track 14 Filename : /Volumes/osec/XLDs/Quincy Jones - The Cinema of Quincy Jones (2016) {537 329-6} [FLAC]/01 - 14 - The Slender Thread: Threadbare (Main Title Part III).flac /Volumes/osec/XLDs/Quincy Jones - The Cinema of Quincy Jones (2016) {537 329-6} [V0]/01 - 14 - The Slender Thread: Threadbare (Main Title Part III).mp3 /Volumes/osec/XLDs/Quincy Jones - The Cinema of Quincy Jones (2016) {537 329-6} [320]/01 - 14 - The Slender Thread: Threadbare (Main Title Part III).mp3

Track gain : -2.50 dB Peak : 0.768707 CRC32 hash (test run) : B3B70E75 CRC32 hash : B3B70E75 CRC32 hash (skip zero) : DAB6D97C AccurateRip v1 signature : BCA62D89 AccurateRip v2 signature : 359DF318 ->Accurately ripped (v2, confidence 3/3) Statistics Read error : 0 Jitter error (maybe fixed) : 0 Retry sector count : 0 Damaged sector count : 0

Track 15 Filename : /Volumes/osec/XLDs/Quincy Jones - The Cinema of Quincy Jones (2016) {537 329-6} [FLAC]/01 - 15 - The Slender Thread: Aftermath.flac /Volumes/osec/XLDs/Quincy Jones - The Cinema of Quincy Jones (2016) {537 329-6} [V0]/01 - 15 - The Slender Thread: Aftermath.mp3 /Volumes/osec/XLDs/Quincy Jones - The Cinema of Quincy Jones (2016) {537 329-6} [320]/01 - 15 - The Slender Thread: Aftermath.mp3

Track gain : 0.25 dB Peak : 0.669952 CRC32 hash (test run) : 7005D429 CRC32 hash : 7005D429 CRC32 hash (skip zero) : 7AF3F2C8 AccurateRip v1 signature : 23835D0F AccurateRip v2 signature : 6C65E3C2 ->Accurately ripped (v2, confidence 3/3) Statistics Read error : 0 Jitter error (maybe fixed) : 0 Retry sector count : 0 Damaged sector count : 0

Track 16 Filename : /Volumes/osec/XLDs/Quincy Jones - The Cinema of Quincy Jones (2016) {537 329-6} [FLAC]/01 - 16 - The Slender Thread: Fox's Sugar.flac /Volumes/osec/XLDs/Quincy Jones - The Cinema of Quincy Jones (2016) {537 329-6} [V0]/01 - 16 - The Slender Thread: Fox's Sugar.mp3 /Volumes/osec/XLDs/Quincy Jones - The Cinema of Quincy Jones (2016) {537 329-6} [320]/01 - 16 - The Slender Thread: Fox's Sugar.mp3

Track gain : -2.51 dB Peak : 0.977203 CRC32 hash (test run) : 7FA4D6DC CRC32 hash : 7FA4D6DC CRC32 hash (skip zero) : 72BF7A6A AccurateRip v1 signature : CCF8DA80 AccurateRip v2 signature : AACB7FCA ->Accurately ripped (v2, confidence 3/3) Statistics Read error : 0 Jitter error (maybe fixed) : 0 Retry sector count : 0 Damaged sector count : 0

Track 17 Filename : /Volumes/osec/XLDs/Quincy Jones - The Cinema of Quincy Jones (2016) {537 329-6} [FLAC]/01 - 17 - The Slender Thread: Funny Farm.flac /Volumes/osec/XLDs/Quincy Jones - The Cinema of Quincy Jones (2016) {537 329-6} [V0]/01 - 17 - The Slender Thread: Funny Farm.mp3 /Volumes/osec/XLDs/Quincy Jones - The Cinema of Quincy Jones (2016) {537 329-6} [320]/01 - 17 - The Slender Thread: Funny Farm.mp3

Track gain : -4.56 dB Peak : 0.760895 CRC32 hash (test run) : 11A72428 CRC32 hash : 11A72428 CRC32 hash (skip zero) : 9692C0C2 AccurateRip v1 signature : B31F9B7D AccurateRip v2 signature : D59FD12C ->Accurately ripped (v2, confidence 3/3) Statistics Read error : 0 Jitter error (maybe fixed) : 0 Retry sector count : 0 Damaged sector count : 0

Track 18 Filename : /Volumes/osec/XLDs/Quincy Jones - The Cinema of Quincy Jones (2016) {537 329-6} [FLAC]/01 - 18 - The Slender Thread: Theme for Inga.flac /Volumes/osec/XLDs/Quincy Jones - The Cinema of Quincy Jones (2016) {537 329-6} [V0]/01 - 18 - The Slender Thread: Theme for Inga.mp3 /Volumes/osec/XLDs/Quincy Jones - The Cinema of Quincy Jones (2016) {537 329-6} [320]/01 - 18 - The Slender Thread: Theme for Inga.mp3

Track gain : -0.17 dB Peak : 0.617645 CRC32 hash (test run) : C38EFEC8 CRC32 hash : C38EFEC8 CRC32 hash (skip zero) : 000EDDB7 AccurateRip v1 signature : 0401A1D7 AccurateRip v2 signature : 3C39549D ->Accurately ripped (v2, confidence 3/3) Statistics Read error : 0 Jitter error (maybe fixed) : 0 Retry sector count : 0 Damaged sector count : 0

Track 19 Filename : /Volumes/osec/XLDs/Quincy Jones - The Cinema of Quincy Jones (2016) {537 329-6} [FLAC]/01 - 19 - The Slender Thread: Psychosis.flac /Volumes/osec/XLDs/Quincy Jones - The Cinema of Quincy Jones (2016) {537 329-6} [V0]/01 - 19 - The Slender Thread: Psychosis.mp3 /Volumes/osec/XLDs/Quincy Jones - The Cinema of Quincy Jones (2016) {537 329-6} [320]/01 - 19 - The Slender Thread: Psychosis.mp3

Track gain : -0.11 dB Peak : 0.860413 CRC32 hash (test run) : 931BDF91 CRC32 hash : 931BDF91 CRC32 hash (skip zero) : DD9AA05B AccurateRip v1 signature : 9CEBC290 AccurateRip v2 signature : 8A950274 ->Accurately ripped (v2, confidence 3/3) Statistics Read error : 0 Jitter error (maybe fixed) : 0 Retry sector count : 0 Damaged sector count : 0

Track 20 Filename : /Volumes/osec/XLDs/Quincy Jones - The Cinema of Quincy Jones (2016) {537 329-6} [FLAC]/01 - 20 - The Slender Thread: No Places to Go.flac /Volumes/osec/XLDs/Quincy Jones - The Cinema of Quincy Jones (2016) {537 329-6} [V0]/01 - 20 - The Slender Thread: No Places to Go.mp3 /Volumes/osec/XLDs/Quincy Jones - The Cinema of Quincy Jones (2016) {537 329-6} [320]/01 - 20 - The Slender Thread: No Places to Go.mp3

Track gain : -1.08 dB Peak : 0.621063 CRC32 hash (test run) : 94590891 CRC32 hash : 94590891 CRC32 hash (skip zero) : 83BDE01A AccurateRip v1 signature : 55A38794 AccurateRip v2 signature : 96EC0536 ->Accurately ripped (v2, confidence 3/3) Statistics Read error : 0 Jitter error (maybe fixed) : 0 Retry sector count : 0 Damaged sector count : 0

Track 21 Filename : /Volumes/osec/XLDs/Quincy Jones - The Cinema of Quincy Jones (2016) {537 329-6} [FLAC]/01 - 21 - The Slender Thread: Big Sir.flac /Volumes/osec/XLDs/Quincy Jones - The Cinema of Quincy Jones (2016) {537 329-6} [V0]/01 - 21 - The Slender Thread: Big Sir.mp3 /Volumes/osec/XLDs/Quincy Jones - The Cinema of Quincy Jones (2016) {537 329-6} [320]/01 - 21 - The Slender Thread: Big Sir.mp3

Track gain : -3.41 dB Peak : 0.818268 CRC32 hash (test run) : D739B9A6 CRC32 hash : D739B9A6 CRC32 hash (skip zero) : 55AD6F11 AccurateRip v1 signature : 99594927 AccurateRip v2 signature : 3A1127FB ->Accurately ripped (v2, confidence 3/3) Statistics Read error : 0 Jitter error (maybe fixed) : 0 Retry sector count : 0 Damaged sector count : 0

No errors occurred

End of status report

-----BEGIN XLD SIGNATURE-----r46N0Na6JvSjbIil8X_LVFvVz9OZlCsO5yp9mWRQVLZsIUitrlrwLkfWCtgRDbneDuAqzuvD6rVujAvI5sGKGBz02Wbwwp7shnG89g4-----END XLD SIGNATURE-----
TITLE "The Cinema of Quincy Jones"PERFORMER "Quincy Jones"CATALOG 0600753732977REM GENRE "Jazz"REM DISCNUMBER 1REM TOTALDISCS 6REM DISCID 4B0F3B15REM REPLAYGAIN_ALBUM_GAIN -3.56 dBREM REPLAYGAIN_ALBUM_PEAK 0.977203REM COMPILATION TRUEFILE "01 - 01 - The Pawnbroker - Theme from The Pawnbroker.flac" WAVE TRACK 01 AUDIO TITLE "The Pawnbroker: Theme from The Pawnbroker" PERFORMER "Marc Allen" SONGWRITER "Quincy Jones, Jack Lawrence" ISRC USPR36509019 REM DATE "1964" REM COMMENT "Decca ‎– 537 329-6" REM REPLAYGAIN_TRACK_GAIN -5.38 dB REM REPLAYGAIN_TRACK_PEAK 0.904205 INDEX 01 00:00:00FILE "01 - 02 - The Pawnbroker - Main Title.flac" WAVE TRACK 02 AUDIO TITLE "The Pawnbroker: Main Title" PERFORMER "Quincy Jones" SONGWRITER "Quincy Jones" ISRC USPR36509020 REM DATE 1964 REM COMMENT "Decca ‎– 537 329-6" REM REPLAYGAIN_TRACK_GAIN -1.88 dB REM REPLAYGAIN_TRACK_PEAK 0.817932 INDEX 01 00:00:00FILE "01 - 03 - The Pawnbroker - Harlem Drive.flac" WAVE TRACK 03 AUDIO TITLE "The Pawnbroker: Harlem Drive" PERFORMER "Quincy Jones" SONGWRITER "Quincy Jones" ISRC USPR36509021 REM DATE 1964 REM COMMENT "Decca ‎– 537 329-6" REM REPLAYGAIN_TRACK_GAIN -3.72 dB REM REPLAYGAIN_TRACK_PEAK 0.904205 INDEX 01 00:00:00FILE "01 - 04 - The Pawnbroker - The Naked Truth.flac" WAVE TRACK 04 AUDIO TITLE "The Pawnbroker: The Naked Truth" PERFORMER "Quincy Jones" SONGWRITER "Quincy Jones" ISRC USPR36509022 REM DATE 1964 REM COMMENT "Decca ‎– 537 329-6" REM REPLAYGAIN_TRACK_GAIN -0.28 dB REM REPLAYGAIN_TRACK_PEAK 0.904297 INDEX 01 00:00:00FILE "01 - 05 - The Pawnbroker - Otez' Night Off.flac" WAVE TRACK 05 AUDIO TITLE "The Pawnbroker: Otez' Night Off" PERFORMER "Quincy Jones" SONGWRITER "Quincy Jones" ISRC USPR36509023 REM DATE 1964 REM COMMENT "Decca ‎– 537 329-6" REM REPLAYGAIN_TRACK_GAIN -4.57 dB REM REPLAYGAIN_TRACK_PEAK 0.905548 INDEX 01 00:00:00FILE "01 - 06 - The Pawnbroker - Theme from The Pawnbroker (instrumental version).flac" WAVE TRACK 06 AUDIO TITLE "The Pawnbroker: Theme from The Pawnbroker (instrumental version)" PERFORMER "Quincy Jones" SONGWRITER "Quincy Jones" ISRC USPR36509024 REM DATE 1964 REM COMMENT "Decca ‎– 537 329-6" REM REPLAYGAIN_TRACK_GAIN -4.00 dB REM REPLAYGAIN_TRACK_PEAK 0.904236 INDEX 01 00:00:00FILE "01 - 07 - The Pawnbroker - How Come, You People. (dialogue by Rod Steiger).flac" WAVE TRACK 07 AUDIO TITLE "The Pawnbroker: How Come, You People! (dialogue by Rod Steiger)" PERFORMER "Quincy Jones" SONGWRITER "Quincy Jones" ISRC USPR36509025 REM DATE 1964 REM COMMENT "Decca ‎– 537 329-6" REM REPLAYGAIN_TRACK_GAIN -4.72 dB REM REPLAYGAIN_TRACK_PEAK 0.783722 INDEX 01 00:00:00FILE "01 - 08 - The Pawnbroker - Rack 'Em Up.flac" WAVE TRACK 08 AUDIO TITLE "The Pawnbroker: Rack 'Em Up" PERFORMER "Quincy Jones" SONGWRITER "Quincy Jones" ISRC USPR36509026 REM DATE 1964 REM COMMENT "Decca ‎– 537 329-6" REM REPLAYGAIN_TRACK_GAIN -3.02 dB REM REPLAYGAIN_TRACK_PEAK 0.869781 INDEX 01 00:00:00FILE "01 - 09 - The Pawnbroker - Death Scene.flac" WAVE TRACK 09 AUDIO TITLE "The Pawnbroker: Death Scene" PERFORMER "Quincy Jones" SONGWRITER "Quincy Jones" ISRC USPR36509027 REM DATE 1964 REM COMMENT "Decca ‎– 537 329-6" REM REPLAYGAIN_TRACK_GAIN -1.49 dB REM REPLAYGAIN_TRACK_PEAK 0.869781 INDEX 01 00:00:00FILE "01 - 10 - The Pawnbroker - End Title.flac" WAVE TRACK 10 AUDIO TITLE "The Pawnbroker: End Title" PERFORMER "Quincy Jones" SONGWRITER "Quincy Jones" ISRC USPR36509028 REM DATE "1964" REM COMMENT "Decca ‎– 537 329-6" REM REPLAYGAIN_TRACK_GAIN -4.06 dB REM REPLAYGAIN_TRACK_PEAK 0.869781 INDEX 01 00:00:00FILE "01 - 11 - The Pawnbroker - Theme from The Pawnbroker.flac" WAVE TRACK 11 AUDIO TITLE "The Pawnbroker: Theme from The Pawnbroker" PERFORMER "Sarah Vaughan" SONGWRITER "Quincy Jones, Jack Lawrence" ISRC USPR36586813 REM DATE "1964" REM COMMENT "Decca ‎– 537 329-6" REM REPLAYGAIN_TRACK_GAIN -3.97 dB REM REPLAYGAIN_TRACK_PEAK 0.714630 INDEX 01 00:00:00FILE "01 - 12 - The Slender Thread - Preludium (Main Title Part II).flac" WAVE TRACK 12 AUDIO TITLE "The Slender Thread: Preludium (Main Title Part II)" PERFORMER "Quincy Jones" SONGWRITER "Quincy Jones" ISRC USUM71506464 REM DATE "1965" REM COMMENT "Decca ‎– 537 329-6" REM REPLAYGAIN_TRACK_GAIN -4.41 dB REM REPLAYGAIN_TRACK_PEAK 0.898926 INDEX 01 00:00:00FILE "01 - 13 - The Slender Thread - Main Theme (Main Title Part I).flac" WAVE TRACK 13 AUDIO TITLE "The Slender Thread: Main Theme (Main Title Part I)" PERFORMER "Quincy Jones" SONGWRITER "Quincy Jones" ISRC USUM71506465 REM DATE "1965" REM COMMENT "Decca ‎– 537 329-6" REM REPLAYGAIN_TRACK_GAIN -3.02 dB REM REPLAYGAIN_TRACK_PEAK 0.764923 INDEX 01 00:00:00FILE "01 - 14 - The Slender Thread - Threadbare (Main Title Part III).flac" WAVE TRACK 14 AUDIO TITLE "The Slender Thread: Threadbare (Main Title Part III)" PERFORMER "Quincy Jones" SONGWRITER "Quincy Jones" ISRC USUM71506466 REM DATE "1965" REM COMMENT "Decca ‎– 537 329-6" REM REPLAYGAIN_TRACK_GAIN -2.50 dB REM REPLAYGAIN_TRACK_PEAK 0.768707 INDEX 01 00:00:00FILE "01 - 15 - The Slender Thread - Aftermath.flac" WAVE TRACK 15 AUDIO TITLE "The Slender Thread: Aftermath" PERFORMER "Quincy Jones" SONGWRITER "Quincy Jones" ISRC USUM71506467 REM DATE "1965" REM COMMENT "Decca ‎– 537 329-6" REM REPLAYGAIN_TRACK_GAIN 0.25 dB REM REPLAYGAIN_TRACK_PEAK 0.669952 INDEX 01 00:00:00FILE "01 - 16 - The Slender Thread - Fox's Sugar.flac" WAVE TRACK 16 AUDIO TITLE "The Slender Thread: Fox's Sugar" PERFORMER "Quincy Jones" SONGWRITER "Quincy Jones" ISRC USUM71506468 REM DATE "1965" REM COMMENT "Decca ‎– 537 329-6" REM REPLAYGAIN_TRACK_GAIN -2.51 dB REM REPLAYGAIN_TRACK_PEAK 0.977203 INDEX 01 00:00:00FILE "01 - 17 - The Slender Thread - Funny Farm.flac" WAVE TRACK 17 AUDIO TITLE "The Slender Thread: Funny Farm" PERFORMER "Quincy Jones" SONGWRITER "Quincy Jones" ISRC USGR10110000 REM DATE "1965" REM COMMENT "Decca ‎– 537 329-6" REM REPLAYGAIN_TRACK_GAIN -4.56 dB REM REPLAYGAIN_TRACK_PEAK 0.760895 INDEX 01 00:00:00FILE "01 - 18 - The Slender Thread - Theme for Inga.flac" WAVE TRACK 18 AUDIO TITLE "The Slender Thread: Theme for Inga" PERFORMER "Quincy Jones" SONGWRITER "Quincy Jones" ISRC USUM71506469 REM DATE "1965" REM COMMENT "Decca ‎– 537 329-6" REM REPLAYGAIN_TRACK_GAIN -0.17 dB REM REPLAYGAIN_TRACK_PEAK 0.617645 INDEX 01 00:00:00FILE "01 - 19 - The Slender Thread - Psychosis.flac" WAVE TRACK 19 AUDIO TITLE "The Slender Thread: Psychosis" PERFORMER "Quincy Jones" SONGWRITER "Quincy Jones" ISRC USUM71506470 REM DATE "1965" REM COMMENT "Decca ‎– 537 329-6" REM REPLAYGAIN_TRACK_GAIN -0.11 dB REM REPLAYGAIN_TRACK_PEAK 0.860413 INDEX 01 00:00:00FILE "01 - 20 - The Slender Thread - No Places to Go.flac" WAVE TRACK 20 AUDIO TITLE "The Slender Thread: No Places to Go" PERFORMER "Quincy Jones" SONGWRITER "Quincy Jones" ISRC USUM71506471 REM DATE "1965" REM COMMENT "Decca ‎– 537 329-6" REM REPLAYGAIN_TRACK_GAIN -1.08 dB REM REPLAYGAIN_TRACK_PEAK 0.621063 INDEX 01 00:00:00FILE "01 - 21 - The Slender Thread - Big Sir.flac" WAVE TRACK 21 AUDIO TITLE "The Slender Thread: Big Sir" PERFORMER "Quincy Jones" SONGWRITER "Quincy Jones" ISRC USUM71506472 REM DATE "1965" REM COMMENT "Decca ‎– 537 329-6" REM REPLAYGAIN_TRACK_GAIN -3.41 dB REM REPLAYGAIN_TRACK_PEAK 0.818268 INDEX 01 00:00:00
CUE Corrector v. 8.3.4 / b. 859 (Jun. 01, 2018)

Quincy Jones / The Cinema of Quincy Jones

AccurateRip ID [003465b6-0316de80-4b0f3b15] found. Get file: http://www.accuraterip.com/accuraterip/6/b/5/dBAR-021-003465b6-0316de80-4b0f3b15.bin

AccurateRip summary:

Track 1 accurately ripped (confidence 5) [133B6C07] (AR v2)Track 2 accurately ripped (confidence 5) [FB633A5B] (AR v2)Track 3 accurately ripped (confidence 5) [70369353] (AR v2)Track 4 accurately ripped (confidence 5) [836B6E6B] (AR v2)Track 5 accurately ripped (confidence 5) [51315E4B] (AR v2)Track 6 accurately ripped (confidence 5) [765C22B6] (AR v2)Track 7 accurately ripped (confidence 5) [4A82C2A0] (AR v2)Track 8 accurately ripped (confidence 5) [0F6FC3F9] (AR v2)Track 9 accurately ripped (confidence 5) [D9DAB81F] (AR v2)Track 10 accurately ripped (confidence 5) [3E6F44B0] (AR v2)Track 11 accurately ripped (confidence 5) [A55D3DD5] (AR v2)Track 12 accurately ripped (confidence 5) [9599CC38] (AR v2)Track 13 accurately ripped (confidence 5) [2C3E758F] (AR v2)Track 14 accurately ripped (confidence 5) [359DF318] (AR v2)Track 15 accurately ripped (confidence 5) [6C65E3C2] (AR v2)Track 16 accurately ripped (confidence 5) [AACB7FCA] (AR v2)Track 17 accurately ripped (confidence 5) [D59FD12C] (AR v2)Track 18 accurately ripped (confidence 5) [3C39549D] (AR v2)Track 19 accurately ripped (confidence 5) [8A950274] (AR v2)Track 20 accurately ripped (confidence 5) [96EC0536] (AR v2)Track 21 accurately ripped (confidence 5) [3A1127FB] (AR v2)

All tracks accurately ripped

Track Peak [ CRC32 ] [W/O NULL] [ LOG ] [ ARv1 ] [ ARv2 ] -- 97.7 [127A4A18] [E442C186] 01 90.4 [E37ECD29] [4B611E52] [3F29765E] [133B6C07] 02 81.7 [A9EA2D5F] [655E14B4] [08725F14] [FB633A5B] 03 90.4 [E1469432] [D3928E9F] [3FF21F14] [70369353] 04 90.4 [AAAEA9A3] [3FB5D4C6] [0E4122A3] [836B6E6B] 05 90.5 [40610B85] [38FEC9EC] [1A40869A] [51315E4B] 06 90.4 [BE6F97BD] [96940C30] [FBE1BD42] [765C22B6] 07 78.3 [6803D687] [51357C60] [3B85E981] [4A82C2A0] 08 86.9 [007F3DA2] [512169D1] [F08D22A6] [0F6FC3F9] 09 86.9 [3A715358] [894EEB70] [F32BB4F3] [D9DAB81F] 10 86.9 [5474062F] [5EA07D22] [745810B0] [3E6F44B0] 11 71.4 [06D8273B] [B7293704] [6C362613] [A55D3DD5] 12 89.8 [D74D9D06] [E00392A7] [E470B2FB] [9599CC38] 13 76.4 [0C20A792] [F9E1ADA7] [E2A96A50] [2C3E758F] 14 76.8 [B3B70E75] [DAB6D97C] [BCA62D89] [359DF318] 15 66.9 [7005D429] [7AF3F2C8] [23835D0F] [6C65E3C2] 16 97.7 [7FA4D6DC] [72BF7A6A] [CCF8DA80] [AACB7FCA] 17 76.0 [11A72428] [9692C0C2] [B31F9B7D] [D59FD12C] 18 61.7 [C38EFEC8] [000EDDB7] [0401A1D7] [3C39549D] 19 86.0 [931BDF91] [DD9AA05B] [9CEBC290] [8A950274] 20 62.1 [94590891] [83BDE01A] [55A38794] [96EC0536] 21 81.8 [D739B9A6] [55AD6F11] [99594927] [3A1127FB]

Log created at June 06, 2018 11:59:12Time elapsed: 10.905 s

=== 17FB3C74935702B1B07E27554D65AC51CE8BB06C15D21A1B028C8FE26A10B979 ===
CUE Corrector v. 8.3.4 / b. 859 (Jun. 01, 2018)————————————————————————————————————————————————————————————————————————Quincy Jones / The Cinema of Quincy Jones

CUE file: The Cinema of Quincy Jones CD1.cueAudio files: 01 - 01 - The Pawnbroker - Theme from The Pawnbroker.flac [03:11.240; FLAC • 840 kbps • 16 bit \ 44100 Hz • stereo; 19.17 MB (20 099 342 B)] 01 - 02 - The Pawnbroker - Main Title.flac [03:46.147; FLAC • 784 kbps • 16 bit \ 44100 Hz • stereo; 21.15 MB (22 181 574 B)] 01 - 03 - The Pawnbroker - Harlem Drive.flac [01:59.600; FLAC • 821 kbps • 16 bit \ 44100 Hz • stereo; 11.71 MB (12 274 805 B)] 01 - 04 - The Pawnbroker - The Naked Truth.flac [04:13.240; FLAC • 619 kbps • 16 bit \ 44100 Hz • stereo; 18.69 MB (19 600 094 B)] 01 - 05 - The Pawnbroker - Otez' Night Off.flac [05:04.000; FLAC • 762 kbps • 16 bit \ 44100 Hz • stereo; 27.64 MB (28 982 435 B)] 01 - 06 - The Pawnbroker - Theme from The Pawnbroker (instrumental version).flac [04:10.507; FLAC • 762 kbps • 16 bit \ 44100 Hz • stereo; 22.78 MB (23 884 779 B)] 01 - 07 - The Pawnbroker - How Come, You People. (dialogue by Rod Steiger).flac [02:53.093; FLAC • 718 kbps • 16 bit \ 44100 Hz • stereo; 14.82 MB (15 537 133 B)] 01 - 08 - The Pawnbroker - Rack 'Em Up.flac [02:43.240; FLAC • 915 kbps • 16 bit \ 44100 Hz • stereo; 17.81 MB (18 674 533 B)] 01 - 09 - The Pawnbroker - Death Scene.flac [05:03.987; FLAC • 770 kbps • 16 bit \ 44100 Hz • stereo; 27.92 MB (29 272 027 B)] 01 - 10 - The Pawnbroker - End Title.flac [03:11.400; FLAC • 849 kbps • 16 bit \ 44100 Hz • stereo; 19.38 MB (20 323 758 B)] 01 - 11 - The Pawnbroker - Theme from The Pawnbroker.flac [02:36.293; FLAC • 626 kbps • 16 bit \ 44100 Hz • stereo; 11.67 MB (12 239 835 B)] 01 - 12 - The Slender Thread - Preludium (Main Title Part II).flac [02:26.973; FLAC • 714 kbps • 16 bit \ 44100 Hz • stereo; 12.52 MB (13 129 680 B)] 01 - 13 - The Slender Thread - Main Theme (Main Title Part I).flac [02:06.360; FLAC • 686 kbps • 16 bit \ 44100 Hz • stereo; 10.33 MB (10 836 054 B)] 01 - 14 - The Slender Thread - Threadbare (Main Title Part III).flac [02:23.680; FLAC • 811 kbps • 16 bit \ 44100 Hz • stereo; 13.91 MB (14 582 398 B)] 01 - 15 - The Slender Thread - Aftermath.flac [02:45.693; FLAC • 692 kbps • 16 bit \ 44100 Hz • stereo; 13.68 MB (14 345 660 B)] 01 - 16 - The Slender Thread - Fox's Sugar.flac [03:31.613; FLAC • 808 kbps • 16 bit \ 44100 Hz • stereo; 20.39 MB (21 377 999 B)] 01 - 17 - The Slender Thread - Funny Farm.flac [01:36.213; FLAC • 814 kbps • 16 bit \ 44100 Hz • stereo; 9.35 MB (9 801 510 B)] 01 - 18 - The Slender Thread - Theme for Inga.flac [02:35.533; FLAC • 718 kbps • 16 bit \ 44100 Hz • stereo; 13.32 MB (13 967 173 B)] 01 - 19 - The Slender Thread - Psychosis.flac [03:13.493; FLAC • 651 kbps • 16 bit \ 44100 Hz • stereo; 15.04 MB (15 767 898 B)] 01 - 20 - The Slender Thread - No Places to Go.flac [03:13.387; FLAC • 681 kbps • 16 bit \ 44100 Hz • stereo; 15.71 MB (16 469 207 B)] 01 - 21 - The Slender Thread - Big Sir.flac [02:13.653; FLAC • 818 kbps • 16 bit \ 44100 Hz • stereo; 13.05 MB (13 682 149 B)]

Accuracy: -m0

Track 01 - The Pawnbroker: Theme from The Pawnbroker (Marc Allen) - 100% CDDA [03:11:18]Track 02 - The Pawnbroker: Main Title - 100% CDDA [03:46:11]Track 03 - The Pawnbroker: Harlem Drive - 100% CDDA [01:59:45]Track 04 - The Pawnbroker: The Naked Truth - 100% CDDA [04:13:18]Track 05 - The Pawnbroker: Otez' Night Off - 100% CDDA [05:04:00]Track 06 - The Pawnbroker: Theme from The Pawnbroker (instrumental version) - 100% CDDA [04:10:38]Track 07 - The Pawnbroker: How Come, You People! (dialogue by Rod Steiger) - 100% CDDA [02:53:07]Track 08 - The Pawnbroker: Rack 'Em Up - 100% CDDA [02:43:18]Track 09 - The Pawnbroker: Death Scene - 100% CDDA [05:03:74]Track 10 - The Pawnbroker: End Title - 99% CDDA [03:11:30]Track 11 - The Pawnbroker: Theme from The Pawnbroker (Sarah Vaughan) - 100% CDDA [02:36:22]Track 12 - The Slender Thread: Preludium (Main Title Part II) - 100% CDDA [02:26:73]Track 13 - The Slender Thread: Main Theme (Main Title Part I) - 100% CDDA [02:06:27]Track 14 - The Slender Thread: Threadbare (Main Title Part III) - 100% CDDA [02:23:51]Track 15 - The Slender Thread: Aftermath - 100% CDDA [02:45:52]Track 16 - The Slender Thread: Fox's Sugar - 100% CDDA [03:31:46]Track 17 - The Slender Thread: Funny Farm - 100% CDDA [01:36:16]Track 18 - The Slender Thread: Theme for Inga - 100% CDDA [02:35:40]Track 19 - The Slender Thread: Psychosis - 100% CDDA [03:13:37]Track 20 - The Slender Thread: No Places to Go - 100% CDDA [03:13:29]Track 21 - The Slender Thread: Big Sir - 99% CDDA [02:13:49]————— Summary: —————These tracks looks like CDDA with probability 100%.————————————————————————————————————————————————————————————————————————

ANALYZER: auCDtect: CD records authenticity detector, version 0.8.2 Copyright (c) 2004 Oleg Berngardt. All rights reserved. Copyright (c) 2004 Alexander Djourik. All rights reserved.

Time elapsed: 2 m 57 sLog created at June 06, 2018 12:03:08

=== 9C8D7A22F886318BD15F97C4E4C30AF975A245907A17DC0747471A70B25A8385 ===
</div>
</div>
01. Mirage: Mirage (vocal version) [2:24]
02. Mirage: Boobie Baby [3:19]
03. Mirage: Shoot to Kill [2:33]
04. Mirage: Dead Duck [3:24]
05. Mirage: Purple Prose [3:11]
06. Mirage: Main Title [2:54]
07. Mirage: Mirage (instrumental version) [3:37]
08. Mirage: Turtle's Last Lap [1:43]
09. Mirage: A Shot in the Park [4:12]
10. Mirage: Kinda Scary [4:36]
11. Mirage: End Title [3:01]
12. The Deadly Affair: Who Needs Forever [3:10]
13. The Deadly Affair: Dieter's First Mistake [4:55]
14. The Deadly Affair: Intrumental Main Theme (I) [2:14]
15. The Deadly Affair: Postcard Signed 'S' - Mendel Tails Elsa - Ticket to 'S' [5:43]
16. The Deadly Affair: Intrumental Main Theme (II) [3:08]
17. The Deadly Affair: Don't Fly If It's Foggy [1:15]
18. The Deadly Affair: Blondie-Tails [1:21]
19. The Deadly Affair: Intrumental Main Theme (III) [2:10]
20. The Deadly Affair: Ridiculous Scene [1:52]
21. The Deadly Affair: Body on Elevator [1:00]
22. The Deadly Affair: Bobb's at Gunpoint [0:49]
23. The Deadly Affair: End Title [1:45]

Продолжительность: 01:04:16
<div class="sp-wrap">
<div class="sp-head folded">Лог создания рипа</div>
<div class="sp-body">

X Lossless Decoder version 20170729 (150.3)

XLD extraction logfile from 2017-11-05 11:04:26 +0100

Quincy Jones / The Cinema of Quincy Jones

Used drive : MATSHITA BD-MLT UJ272 (revision 1.01)Media type : Pressed CD

Ripper mode : XLD Secure RipperDisable audio cache : OK for the drive with a cache less than 1375KiBMake use of C2 pointers : NORead offset correction : 103Max retry count : 20Gap status : Analyzed, Appended (except HTOA)

TOC of the extracted CD Track | Start | Length | Start sector | End sector --------------------------------------------------------- 1 | 00:00:00 | 02:23:40 | 0 | 10764 2 | 02:23:40 | 03:18:71 | 10765 | 25685 3 | 05:42:36 | 02:32:66 | 25686 | 37151 4 | 08:15:27 | 03:24:05 | 37152 | 52456 5 | 11:39:32 | 03:11:15 | 52457 | 66796 6 | 14:50:47 | 02:53:69 | 66797 | 79840 7 | 17:44:41 | 03:37:04 | 79841 | 96119 8 | 21:21:45 | 01:43:08 | 96120 | 103852 9 | 23:04:53 | 04:12:01 | 103853 | 122753 10 | 27:16:54 | 04:35:59 | 122754 | 143437 11 | 31:52:38 | 03:00:59 | 143438 | 156996 12 | 34:53:22 | 03:10:13 | 156997 | 171259 13 | 38:03:35 | 04:55:35 | 171260 | 193419 14 | 42:58:70 | 02:14:04 | 193420 | 203473 15 | 45:12:74 | 05:42:70 | 203474 | 229193 16 | 50:55:69 | 03:08:18 | 229194 | 243311 17 | 54:04:12 | 01:15:20 | 243312 | 248956 18 | 55:19:32 | 01:21:20 | 248957 | 255051 19 | 56:40:52 | 02:09:62 | 255052 | 264788 20 | 58:50:39 | 01:51:61 | 264789 | 273174 21 | 60:42:25 | 01:00:03 | 273175 | 277677 22 | 61:42:28 | 00:48:41 | 277678 | 281318 23 | 62:30:69 | 01:45:05 | 281319 | 289198

AccurateRip Summary (DiscID: 003a6401-03c96a42-400f0f17) Track 01 : OK (v2, confidence 3/3) Track 02 : OK (v2, confidence 3/3) Track 03 : OK (v2, confidence 3/3) Track 04 : OK (v2, confidence 3/3) Track 05 : OK (v2, confidence 3/3) Track 06 : OK (v2, confidence 3/3) Track 07 : OK (v2, confidence 3/3) Track 08 : OK (v2, confidence 3/3) Track 09 : OK (v2, confidence 3/3) Track 10 : OK (v2, confidence 3/3) Track 11 : OK (v2, confidence 3/3) Track 12 : OK (v2, confidence 3/3) Track 13 : OK (v2, confidence 3/3) Track 14 : OK (v2, confidence 3/3) Track 15 : OK (v2, confidence 3/3) Track 16 : OK (v2, confidence 3/3) Track 17 : OK (v2, confidence 3/3) Track 18 : OK (v2, confidence 3/3) Track 19 : OK (v2, confidence 3/3) Track 20 : OK (v2, confidence 3/3) Track 21 : OK (v2, confidence 3/3) Track 22 : OK (v2, confidence 3/3) Track 23 : OK (v2, confidence 3/3) ->All tracks accurately ripped.

All Tracks Album gain : -4.35 dB Peak : 0.956451 Statistics Read error : 0 Jitter error (maybe fixed) : 0 Retry sector count : 0 Damaged sector count : 0

Track 01 Filename : /Volumes/osec/XLDs/Quincy Jones - The Cinema of Quincy Jones (2016) {537 329-6} [FLAC]/02 - 01 - Mirage: Mirage (vocal version).flac /Volumes/osec/XLDs/Quincy Jones - The Cinema of Quincy Jones (2016) {537 329-6} [V0]/02 - 01 - Mirage: Mirage (vocal version).mp3 /Volumes/osec/XLDs/Quincy Jones - The Cinema of Quincy Jones (2016) {537 329-6} [320]/02 - 01 - Mirage: Mirage (vocal version).mp3 Pre-gap length : 00:02:00

Track gain : -5.24 dB Peak : 0.826843 CRC32 hash (test run) : 6F785746 CRC32 hash : 6F785746 CRC32 hash (skip zero) : 8E37F7D1 AccurateRip v1 signature : 2CF5AC2D AccurateRip v2 signature : B776A00D ->Accurately ripped (v2, confidence 3/3) Statistics Read error : 0 Jitter error (maybe fixed) : 0 Retry sector count : 0 Damaged sector count : 0

Track 02 Filename : /Volumes/osec/XLDs/Quincy Jones - The Cinema of Quincy Jones (2016) {537 329-6} [FLAC]/02 - 02 - Mirage: Boobie Baby.flac /Volumes/osec/XLDs/Quincy Jones - The Cinema of Quincy Jones (2016) {537 329-6} [V0]/02 - 02 - Mirage: Boobie Baby.mp3 /Volumes/osec/XLDs/Quincy Jones - The Cinema of Quincy Jones (2016) {537 329-6} [320]/02 - 02 - Mirage: Boobie Baby.mp3

Track gain : -2.71 dB Peak : 0.879303 CRC32 hash (test run) : 67372E90 CRC32 hash : 67372E90 CRC32 hash (skip zero) : 16CA0FF2 AccurateRip v1 signature : 26A3E0A0 AccurateRip v2 signature : 3C5D7342 ->Accurately ripped (v2, confidence 3/3) Statistics Read error : 0 Jitter error (maybe fixed) : 0 Retry sector count : 0 Damaged sector count : 0

Track 03 Filename : /Volumes/osec/XLDs/Quincy Jones - The Cinema of Quincy Jones (2016) {537 329-6} [FLAC]/02 - 03 - Mirage: Shoot to Kill.flac /Volumes/osec/XLDs/Quincy Jones - The Cinema of Quincy Jones (2016) {537 329-6} [V0]/02 - 03 - Mirage: Shoot to Kill.mp3 /Volumes/osec/XLDs/Quincy Jones - The Cinema of Quincy Jones (2016) {537 329-6} [320]/02 - 03 - Mirage: Shoot to Kill.mp3

Track gain : -7.12 dB Peak : 0.829498 CRC32 hash (test run) : ACC68F98 CRC32 hash : ACC68F98 CRC32 hash (skip zero) : CC7202B2 AccurateRip v1 signature : E5F119E7 AccurateRip v2 signature : FDA28DFB ->Accurately ripped (v2, confidence 3/3) Statistics Read error : 0 Jitter error (maybe fixed) : 0 Retry sector count : 0 Damaged sector count : 0

Track 04 Filename : /Volumes/osec/XLDs/Quincy Jones - The Cinema of Quincy Jones (2016) {537 329-6} [FLAC]/02 - 04 - Mirage: Dead Duck.flac /Volumes/osec/XLDs/Quincy Jones - The Cinema of Quincy Jones (2016) {537 329-6} [V0]/02 - 04 - Mirage: Dead Duck.mp3 /Volumes/osec/XLDs/Quincy Jones - The Cinema of Quincy Jones (2016) {537 329-6} [320]/02 - 04 - Mirage: Dead Duck.mp3

Track gain : -5.78 dB Peak : 0.829346 CRC32 hash (test run) : 19EB8069 CRC32 hash : 19EB8069 CRC32 hash (skip zero) : 64166E20 AccurateRip v1 signature : D8A30020 AccurateRip v2 signature : 390837BC ->Accurately ripped (v2, confidence 3/3) Statistics Read error : 0 Jitter error (maybe fixed) : 0 Retry sector count : 0 Damaged sector count : 0

Track 05 Filename : /Volumes/osec/XLDs/Quincy Jones - The Cinema of Quincy Jones (2016) {537 329-6} [FLAC]/02 - 05 - Mirage: Purple Prose.flac /Volumes/osec/XLDs/Quincy Jones - The Cinema of Quincy Jones (2016) {537 329-6} [V0]/02 - 05 - Mirage: Purple Prose.mp3 /Volumes/osec/XLDs/Quincy Jones - The Cinema of Quincy Jones (2016) {537 329-6} [320]/02 - 05 - Mirage: Purple Prose.mp3

Track gain : -3.38 dB Peak : 0.656464 CRC32 hash (test run) : FE8FD1CA CRC32 hash : FE8FD1CA CRC32 hash (skip zero) : 28AB0696 AccurateRip v1 signature : FA93C638 AccurateRip v2 signature : DB759606 ->Accurately ripped (v2, confidence 3/3) Statistics Read error : 0 Jitter error (maybe fixed) : 0 Retry sector count : 0 Damaged sector count : 0

Track 06 Filename : /Volumes/osec/XLDs/Quincy Jones - The Cinema of Quincy Jones (2016) {537 329-6} [FLAC]/02 - 06 - Mirage: Main Title.flac /Volumes/osec/XLDs/Quincy Jones - The Cinema of Quincy Jones (2016) {537 329-6} [V0]/02 - 06 - Mirage: Main Title.mp3 /Volumes/osec/XLDs/Quincy Jones - The Cinema of Quincy Jones (2016) {537 329-6} [320]/02 - 06 - Mirage: Main Title.mp3

Track gain : -5.47 dB Peak : 0.829468 CRC32 hash (test run) : 504AD805 CRC32 hash : 504AD805 CRC32 hash (skip zero) : 1B30ADCF AccurateRip v1 signature : E34C730C AccurateRip v2 signature : 6450F439 ->Accurately ripped (v2, confidence 3/3) Statistics Read error : 0 Jitter error (maybe fixed) : 0 Retry sector count : 0 Damaged sector count : 0

Track 07 Filename : /Volumes/osec/XLDs/Quincy Jones - The Cinema of Quincy Jones (2016) {537 329-6} [FLAC]/02 - 07 - Mirage: Mirage (instrumental version).flac /Volumes/osec/XLDs/Quincy Jones - The Cinema of Quincy Jones (2016) {537 329-6} [V0]/02 - 07 - Mirage: Mirage (instrumental version).mp3 /Volumes/osec/XLDs/Quincy Jones - The Cinema of Quincy Jones (2016) {537 329-6} [320]/02 - 07 - Mirage: Mirage (instrumental version).mp3

Track gain : -4.94 dB Peak : 0.829010 CRC32 hash (test run) : C4994D39 CRC32 hash : C4994D39 CRC32 hash (skip zero) : A7FFEC1E AccurateRip v1 signature : 55D5B34E AccurateRip v2 signature : C72F864B ->Accurately ripped (v2, confidence 3/3) Statistics Read error : 0 Jitter error (maybe fixed) : 0 Retry sector count : 0 Damaged sector count : 0

Track 08 Filename : /Volumes/osec/XLDs/Quincy Jones - The Cinema of Quincy Jones (2016) {537 329-6} [FLAC]/02 - 08 - Mirage: Turtle's Last Lap.flac /Volumes/osec/XLDs/Quincy Jones - The Cinema of Quincy Jones (2016) {537 329-6} [V0]/02 - 08 - Mirage: Turtle's Last Lap.mp3 /Volumes/osec/XLDs/Quincy Jones - The Cinema of Quincy Jones (2016) {537 329-6} [320]/02 - 08 - Mirage: Turtle's Last Lap.mp3

Track gain : -2.09 dB Peak : 0.829315 CRC32 hash (test run) : 91D6E7C9 CRC32 hash : 91D6E7C9 CRC32 hash (skip zero) : 341DC3C9 AccurateRip v1 signature : E0B3EDFE AccurateRip v2 signature : 314E9E07 ->Accurately ripped (v2, confidence 3/3) Statistics Read error : 0 Jitter error (maybe fixed) : 0 Retry sector count : 0 Damaged sector count : 0

Track 09 Filename : /Volumes/osec/XLDs/Quincy Jones - The Cinema of Quincy Jones (2016) {537 329-6} [FLAC]/02 - 09 - Mirage: A Shot in the Park.flac /Volumes/osec/XLDs/Quincy Jones - The Cinema of Quincy Jones (2016) {537 329-6} [V0]/02 - 09 - Mirage: A Shot in the Park.mp3 /Volumes/osec/XLDs/Quincy Jones - The Cinema of Quincy Jones (2016) {537 329-6} [320]/02 - 09 - Mirage: A Shot in the Park.mp3

Track gain : -4.68 dB Peak : 0.829315 CRC32 hash (test run) : DADFDE4E CRC32 hash : DADFDE4E CRC32 hash (skip zero) : 12DA08EE AccurateRip v1 signature : 4DA092C1 AccurateRip v2 signature : 7B2A4E7E ->Accurately ripped (v2, confidence 3/3) Statistics Read error : 0 Jitter error (maybe fixed) : 0 Retry sector count : 0 Damaged sector count : 0

Track 10 Filename : /Volumes/osec/XLDs/Quincy Jones - The Cinema of Quincy Jones (2016) {537 329-6} [FLAC]/02 - 10 - Mirage: Kinda Scary.flac /Volumes/osec/XLDs/Quincy Jones - The Cinema of Quincy Jones (2016) {537 329-6} [V0]/02 - 10 - Mirage: Kinda Scary.mp3 /Volumes/osec/XLDs/Quincy Jones - The Cinema of Quincy Jones (2016) {537 329-6} [320]/02 - 10 - Mirage: Kinda Scary.mp3

Track gain : -3.60 dB Peak : 0.801208 CRC32 hash (test run) : B9D1078E CRC32 hash : B9D1078E CRC32 hash (skip zero) : BC79A027 AccurateRip v1 signature : 25E71BB4 AccurateRip v2 signature : D59A7DE0 ->Accurately ripped (v2, confidence 3/3) Statistics Read error : 0 Jitter error (maybe fixed) : 0 Retry sector count : 0 Damaged sector count : 0

Track 11 Filename : /Volumes/osec/XLDs/Quincy Jones - The Cinema of Quincy Jones (2016) {537 329-6} [FLAC]/02 - 11 - Mirage: End Title.flac /Volumes/osec/XLDs/Quincy Jones - The Cinema of Quincy Jones (2016) {537 329-6} [V0]/02 - 11 - Mirage: End Title.mp3 /Volumes/osec/XLDs/Quincy Jones - The Cinema of Quincy Jones (2016) {537 329-6} [320]/02 - 11 - Mirage: End Title.mp3

Track gain : -6.03 dB Peak : 0.829254 CRC32 hash (test run) : 77C95F2A CRC32 hash : 77C95F2A CRC32 hash (skip zero) : 09DADFFF AccurateRip v1 signature : C434F319 AccurateRip v2 signature : B3A2F440 ->Accurately ripped (v2, confidence 3/3) Statistics Read error : 0 Jitter error (maybe fixed) : 0 Retry sector count : 0 Damaged sector count : 0

Track 12 Filename : /Volumes/osec/XLDs/Quincy Jones - The Cinema of Quincy Jones (2016) {537 329-6} [FLAC]/02 - 12 - The Deadly Affair: Who Needs Forever.flac /Volumes/osec/XLDs/Quincy Jones - The Cinema of Quincy Jones (2016) {537 329-6} [V0]/02 - 12 - The Deadly Affair: Who Needs Forever.mp3 /Volumes/osec/XLDs/Quincy Jones - The Cinema of Quincy Jones (2016) {537 329-6} [320]/02 - 12 - The Deadly Affair: Who Needs Forever.mp3

Track gain : -5.29 dB Peak : 0.910492 CRC32 hash (test run) : 36C579D3 CRC32 hash : 36C579D3 CRC32 hash (skip zero) : 15324033 AccurateRip v1 signature : 0B7C3E1B AccurateRip v2 signature : 5D3B8E77 ->Accurately ripped (v2, confidence 3/3) Statistics Read error : 0 Jitter error (maybe fixed) : 0 Retry sector count : 0 Damaged sector count : 0

Track 13 Filename : /Volumes/osec/XLDs/Quincy Jones - The Cinema of Quincy Jones (2016) {537 329-6} [FLAC]/02 - 13 - The Deadly Affair: Dieter's First Mistake.flac /Volumes/osec/XLDs/Quincy Jones - The Cinema of Quincy Jones (2016) {537 329-6} [V0]/02 - 13 - The Deadly Affair: Dieter's First Mistake.mp3 /Volumes/osec/XLDs/Quincy Jones - The Cinema of Quincy Jones (2016) {537 329-6} [320]/02 - 13 - The Deadly Affair: Dieter's First Mistake.mp3

Track gain : -0.92 dB Peak : 0.954468 CRC32 hash (test run) : 75AF5BC9 CRC32 hash : 75AF5BC9 CRC32 hash (skip zero) : 94CF2FCA AccurateRip v1 signature : 98F3E55A AccurateRip v2 signature : 1CE1FFDE ->Accurately ripped (v2, confidence 3/3) Statistics Read error : 0 Jitter error (maybe fixed) : 0 Retry sector count : 0 Damaged sector count : 0

Track 14 Filename : /Volumes/osec/XLDs/Quincy Jones - The Cinema of Quincy Jones (2016) {537 329-6} [FLAC]/02 - 14 - The Deadly Affair: Intrumental Main Theme (I).flac /Volumes/osec/XLDs/Quincy Jones - The Cinema of Quincy Jones (2016) {537 329-6} [V0]/02 - 14 - The Deadly Affair: Intrumental Main Theme (I).mp3 /Volumes/osec/XLDs/Quincy Jones - The Cinema of Quincy Jones (2016) {537 329-6} [320]/02 - 14 - The Deadly Affair: Intrumental Main Theme (I).mp3

Track gain : -1.66 dB Peak : 0.866730 CRC32 hash (test run) : 42FC2A25 CRC32 hash : 42FC2A25 CRC32 hash (skip zero) : BFADF02D AccurateRip v1 signature : DE470499 AccurateRip v2 signature : 157593EA ->Accurately ripped (v2, confidence 3/3) Statistics Read error : 0 Jitter error (maybe fixed) : 0 Retry sector count : 0 Damaged sector count : 0

Track 15 Filename : /Volumes/osec/XLDs/Quincy Jones - The Cinema of Quincy Jones (2016) {537 329-6} [FLAC]/02 - 15 - The Deadly Affair: Postcard Signed 'S' / Mendel Tails Elsa / Ticket to 'S'.flac /Volumes/osec/XLDs/Quincy Jones - The Cinema of Quincy Jones (2016) {537 329-6} [V0]/02 - 15 - The Deadly Affair: Postcard Signed 'S' / Mendel Tails Elsa / Ticket to 'S'.mp3 /Volumes/osec/XLDs/Quincy Jones - The Cinema of Quincy Jones (2016) {537 329-6} [320]/02 - 15 - The Deadly Affair: Postcard Signed 'S' / Mendel Tails Elsa / Ticket to 'S'.mp3

Track gain : -3.38 dB Peak : 0.906097 CRC32 hash (test run) : 2EA25F1F CRC32 hash : 2EA25F1F CRC32 hash (skip zero) : 26EB459A AccurateRip v1 signature : 2EF282C5 AccurateRip v2 signature : D7F109FC ->Accurately ripped (v2, confidence 3/3) Statistics Read error : 0 Jitter error (maybe fixed) : 0 Retry sector count : 0 Damaged sector count : 0

Track 16 Filename : /Volumes/osec/XLDs/Quincy Jones - The Cinema of Quincy Jones (2016) {537 329-6} [FLAC]/02 - 16 - The Deadly Affair: Intrumental Main Theme (II).flac /Volumes/osec/XLDs/Quincy Jones - The Cinema of Quincy Jones (2016) {537 329-6} [V0]/02 - 16 - The Deadly Affair: Intrumental Main Theme (II).mp3 /Volumes/osec/XLDs/Quincy Jones - The Cinema of Quincy Jones (2016) {537 329-6} [320]/02 - 16 - The Deadly Affair: Intrumental Main Theme (II).mp3

Track gain : -3.70 dB Peak : 0.956207 CRC32 hash (test run) : 040AED12 CRC32 hash : 040AED12 CRC32 hash (skip zero) : EC6E46D8 AccurateRip v1 signature : 07136045 AccurateRip v2 signature : 39E47F30 ->Accurately ripped (v2, confidence 3/3) Statistics Read error : 0 Jitter error (maybe fixed) : 0 Retry sector count : 0 Damaged sector count : 0

Track 17 Filename : /Volumes/osec/XLDs/Quincy Jones - The Cinema of Quincy Jones (2016) {537 329-6} [FLAC]/02 - 17 - The Deadly Affair: Don't Fly If It's Foggy.flac /Volumes/osec/XLDs/Quincy Jones - The Cinema of Quincy Jones (2016) {537 329-6} [V0]/02 - 17 - The Deadly Affair: Don't Fly If It's Foggy.mp3 /Volumes/osec/XLDs/Quincy Jones - The Cinema of Quincy Jones (2016) {537 329-6} [320]/02 - 17 - The Deadly Affair: Don't Fly If It's Foggy.mp3

Track gain : 0.65 dB Peak : 0.559021 CRC32 hash (test run) : 5F0EA46B CRC32 hash : 5F0EA46B CRC32 hash (skip zero) : 1CEC1B12 AccurateRip v1 signature : 6CF24B56 AccurateRip v2 signature : A9683D49 ->Accurately ripped (v2, confidence 3/3) Statistics Read error : 0 Jitter error (maybe fixed) : 0 Retry sector count : 0 Damaged sector count : 0

Track 18 Filename : /Volumes/osec/XLDs/Quincy Jones - The Cinema of Quincy Jones (2016) {537 329-6} [FLAC]/02 - 18 - The Deadly Affair: Blondie-Tails.flac /Volumes/osec/XLDs/Quincy Jones - The Cinema of Quincy Jones (2016) {537 329-6} [V0]/02 - 18 - The Deadly Affair: Blondie-Tails.mp3 /Volumes/osec/XLDs/Quincy Jones - The Cinema of Quincy Jones (2016) {537 329-6} [320]/02 - 18 - The Deadly Affair: Blondie-Tails.mp3

Track gain : -2.97 dB Peak : 0.778656 CRC32 hash (test run) : C9686FB8 CRC32 hash : C9686FB8 CRC32 hash (skip zero) : 6625E2EC AccurateRip v1 signature : 341F1D6C AccurateRip v2 signature : F5FD992B ->Accurately ripped (v2, confidence 3/3) Statistics Read error : 0 Jitter error (maybe fixed) : 0 Retry sector count : 0 Damaged sector count : 0

Track 19 Filename : /Volumes/osec/XLDs/Quincy Jones - The Cinema of Quincy Jones (2016) {537 329-6} [FLAC]/02 - 19 - The Deadly Affair: Intrumental Main Theme (III).flac /Volumes/osec/XLDs/Quincy Jones - The Cinema of Quincy Jones (2016) {537 329-6} [V0]/02 - 19 - The Deadly Affair: Intrumental Main Theme (III).mp3 /Volumes/osec/XLDs/Quincy Jones - The Cinema of Quincy Jones (2016) {537 329-6} [320]/02 - 19 - The Deadly Affair: Intrumental Main Theme (III).mp3

Track gain : -2.69 dB Peak : 0.813599 CRC32 hash (test run) : C1928E7C CRC32 hash : C1928E7C CRC32 hash (skip zero) : 876E858C AccurateRip v1 signature : 2409CBA0 AccurateRip v2 signature : 24AAB17D ->Accurately ripped (v2, confidence 3/3) Statistics Read error : 0 Jitter error (maybe fixed) : 0 Retry sector count : 0 Damaged sector count : 0

Track 20 Filename : /Volumes/osec/XLDs/Quincy Jones - The Cinema of Quincy Jones (2016) {537 329-6} [FLAC]/02 - 20 - The Deadly Affair: Ridiculous Scene.flac /Volumes/osec/XLDs/Quincy Jones - The Cinema of Quincy Jones (2016) {537 329-6} [V0]/02 - 20 - The Deadly Affair: Ridiculous Scene.mp3 /Volumes/osec/XLDs/Quincy Jones - The Cinema of Quincy Jones (2016) {537 329-6} [320]/02 - 20 - The Deadly Affair: Ridiculous Scene.mp3

Track gain : 0.97 dB Peak : 0.579834 CRC32 hash (test run) : 63BB57DF CRC32 hash : 63BB57DF CRC32 hash (skip zero) : B065572C AccurateRip v1 signature : 89C2C987 AccurateRip v2 signature : 5659A941 ->Accurately ripped (v2, confidence 3/3) Statistics Read error : 0 Jitter error (maybe fixed) : 0 Retry sector count : 0 Damaged sector count : 0

Track 21 Filename : /Volumes/osec/XLDs/Quincy Jones - The Cinema of Quincy Jones (2016) {537 329-6} [FLAC]/02 - 21 - The Deadly Affair: Body on Elevator.flac /Volumes/osec/XLDs/Quincy Jones - The Cinema of Quincy Jones (2016) {537 329-6} [V0]/02 - 21 - The Deadly Affair: Body on Elevator.mp3 /Volumes/osec/XLDs/Quincy Jones - The Cinema of Quincy Jones (2016) {537 329-6} [320]/02 - 21 - The Deadly Affair: Body on Elevator.mp3

Track gain : 5.09 dB Peak : 0.461487 CRC32 hash (test run) : 8000559B CRC32 hash : 8000559B CRC32 hash (skip zero) : 72C15E2E AccurateRip v1 signature : 621CBF40 AccurateRip v2 signature : 74F00BDD ->Accurately ripped (v2, confidence 3/3) Statistics Read error : 0 Jitter error (maybe fixed) : 0 Retry sector count : 0 Damaged sector count : 0

Track 22 Filename : /Volumes/osec/XLDs/Quincy Jones - The Cinema of Quincy Jones (2016) {537 329-6} [FLAC]/02 - 22 - The Deadly Affair: Bobb's at Gunpoint.flac /Volumes/osec/XLDs/Quincy Jones - The Cinema of Quincy Jones (2016) {537 329-6} [V0]/02 - 22 - The Deadly Affair: Bobb's at Gunpoint.mp3 /Volumes/osec/XLDs/Quincy Jones - The Cinema of Quincy Jones (2016) {537 329-6} [320]/02 - 22 - The Deadly Affair: Bobb's at Gunpoint.mp3

Track gain : 0.47 dB Peak : 0.629150 CRC32 hash (test run) : F8DE64C8 CRC32 hash : F8DE64C8 CRC32 hash (skip zero) : 368EADBC AccurateRip v1 signature : 268CE324 AccurateRip v2 signature : 73012223 ->Accurately ripped (v2, confidence 3/3) Statistics Read error : 0 Jitter error (maybe fixed) : 0 Retry sector count : 0 Damaged sector count : 0

Track 23 Filename : /Volumes/osec/XLDs/Quincy Jones - The Cinema of Quincy Jones (2016) {537 329-6} [FLAC]/02 - 23 - The Deadly Affair: End Title.flac /Volumes/osec/XLDs/Quincy Jones - The Cinema of Quincy Jones (2016) {537 329-6} [V0]/02 - 23 - The Deadly Affair: End Title.mp3 /Volumes/osec/XLDs/Quincy Jones - The Cinema of Quincy Jones (2016) {537 329-6} [320]/02 - 23 - The Deadly Affair: End Title.mp3

Track gain : -3.90 dB Peak : 0.956451 CRC32 hash (test run) : 508C339E CRC32 hash : 508C339E CRC32 hash (skip zero) : 8228E62A AccurateRip v1 signature : 7DADDD50 AccurateRip v2 signature : B089B437 ->Accurately ripped (v2, confidence 3/3) Statistics Read error : 0 Jitter error (maybe fixed) : 0 Retry sector count : 0 Damaged sector count : 0

No errors occurred

End of status report

-----BEGIN XLD SIGNATURE-----Sk9UzwCWuDZsnlsk0Oz3hVN8g6Pzfo_1cJrxfZFwPlLkUWVSu8XGkN0nmJELmrgjMZfpG27Cl4wd1FW2R9tjwpeh.ukI1fW9oGqA.uS-----END XLD SIGNATURE-----
TITLE "The Cinema of Quincy Jones"PERFORMER "Quincy Jones"CATALOG 0600753732984REM GENRE "Jazz"REM DATE "1965"REM DISCNUMBER 2REM TOTALDISCS 6REM DISCID 400F0F17REM REPLAYGAIN_ALBUM_GAIN -4.35 dBREM REPLAYGAIN_ALBUM_PEAK 0.956451FILE "02 - 01 - Mirage - Mirage (vocal version).flac" WAVE TRACK 01 AUDIO TITLE "Mirage: Mirage (vocal version)" PERFORMER "Quincy Jones" SONGWRITER "Quincy Jones - Bob Russell" ISRC USUM71506473 REM COMMENT "Decca ‎– 537 329-6" REM REPLAYGAIN_TRACK_GAIN -5.24 dB REM REPLAYGAIN_TRACK_PEAK 0.826843 INDEX 01 00:00:00FILE "02 - 02 - Mirage - Boobie Baby.flac" WAVE TRACK 02 AUDIO TITLE "Mirage: Boobie Baby" PERFORMER "Quincy Jones" SONGWRITER "Quincy Jones" ISRC USUM71506474 REM COMMENT "Decca ‎– 537 329-6" REM REPLAYGAIN_TRACK_GAIN -2.71 dB REM REPLAYGAIN_TRACK_PEAK 0.879303 INDEX 01 00:00:00FILE "02 - 03 - Mirage - Shoot to Kill.flac" WAVE TRACK 03 AUDIO TITLE "Mirage: Shoot to Kill" PERFORMER "Quincy Jones" SONGWRITER "Quincy Jones" ISRC USUM71506475 REM COMMENT "Decca ‎– 537 329-6" REM REPLAYGAIN_TRACK_GAIN -7.12 dB REM REPLAYGAIN_TRACK_PEAK 0.829498 INDEX 01 00:00:00FILE "02 - 04 - Mirage - Dead Duck.flac" WAVE TRACK 04 AUDIO TITLE "Mirage: Dead Duck" PERFORMER "Quincy Jones" SONGWRITER "Quincy Jones" ISRC USUM71506476 REM COMMENT "Decca ‎– 537 329-6" REM REPLAYGAIN_TRACK_GAIN -5.78 dB REM REPLAYGAIN_TRACK_PEAK 0.829346 INDEX 01 00:00:00FILE "02 - 05 - Mirage - Purple Prose.flac" WAVE TRACK 05 AUDIO TITLE "Mirage: Purple Prose" PERFORMER "Quincy Jones" SONGWRITER "Quincy Jones" ISRC USUM71506477 REM COMMENT "Decca ‎– 537 329-6" REM REPLAYGAIN_TRACK_GAIN -3.38 dB REM REPLAYGAIN_TRACK_PEAK 0.656464 INDEX 01 00:00:00FILE "02 - 06 - Mirage - Main Title.flac" WAVE TRACK 06 AUDIO TITLE "Mirage: Main Title" PERFORMER "Quincy Jones" SONGWRITER "Quincy Jones" ISRC USUM71506478 REM COMMENT "Decca ‎– 537 329-6" REM REPLAYGAIN_TRACK_GAIN -5.47 dB REM REPLAYGAIN_TRACK_PEAK 0.829468 INDEX 01 00:00:00FILE "02 - 07 - Mirage - Mirage (instrumental version).flac" WAVE TRACK 07 AUDIO TITLE "Mirage: Mirage (instrumental version)" PERFORMER "Quincy Jones" SONGWRITER "Quincy Jones" ISRC USUM71506479 REM COMMENT "Decca ‎– 537 329-6" REM REPLAYGAIN_TRACK_GAIN -4.94 dB REM REPLAYGAIN_TRACK_PEAK 0.829010 INDEX 01 00:00:00FILE "02 - 08 - Mirage - Turtle's Last Lap.flac" WAVE TRACK 08 AUDIO TITLE "Mirage: Turtle's Last Lap" PERFORMER "Quincy Jones" SONGWRITER "Quincy Jones" ISRC USUM70603888 REM COMMENT "Decca ‎– 537 329-6" REM REPLAYGAIN_TRACK_GAIN -2.09 dB REM REPLAYGAIN_TRACK_PEAK 0.829315 INDEX 01 00:00:00FILE "02 - 09 - Mirage - A Shot in the Park.flac" WAVE TRACK 09 AUDIO TITLE "Mirage: A Shot in the Park" PERFORMER "Quincy Jones" SONGWRITER "Quincy Jones" ISRC USUM71506481 REM COMMENT "Decca ‎– 537 329-6" REM REPLAYGAIN_TRACK_GAIN -4.68 dB REM REPLAYGAIN_TRACK_PEAK 0.829315 INDEX 01 00:00:00FILE "02 - 10 - Mirage - Kinda Scary.flac" WAVE TRACK 10 AUDIO TITLE "Mirage: Kinda Scary" PERFORMER "Quincy Jones" SONGWRITER "Quincy Jones" ISRC USUM71506482 REM COMMENT "Decca ‎– 537 329-6" REM REPLAYGAIN_TRACK_GAIN -3.60 dB REM REPLAYGAIN_TRACK_PEAK 0.801208 INDEX 01 00:00:00FILE "02 - 11 - Mirage - End Title.flac" WAVE TRACK 11 AUDIO TITLE "Mirage: End Title" PERFORMER "Quincy Jones" SONGWRITER "Quincy Jones" ISRC USUM71506483 REM COMMENT "Decca ‎– 537 329-6" REM REPLAYGAIN_TRACK_GAIN -6.03 dB REM REPLAYGAIN_TRACK_PEAK 0.829254 INDEX 01 00:00:00FILE "02 - 12 - The Deadly Affair - Who Needs Forever.flac" WAVE TRACK 12 AUDIO TITLE "The Deadly Affair: Who Needs Forever" PERFORMER "Astrud Gilberto" SONGWRITER "Quincy Jones, Howard Greenfield" ISRC USPR36609015 REM COMMENT "Decca ‎– 537 329-6" REM REPLAYGAIN_TRACK_GAIN -5.29 dB REM REPLAYGAIN_TRACK_PEAK 0.910492 INDEX 01 00:00:00FILE "02 - 13 - The Deadly Affair - Dieter's First Mistake.flac" WAVE TRACK 13 AUDIO TITLE "The Deadly Affair: Dieter's First Mistake" PERFORMER "Quincy Jones" SONGWRITER "Quincy Jones" ISRC USPR36609016 REM COMMENT "Decca ‎– 537 329-6" REM REPLAYGAIN_TRACK_GAIN -0.92 dB REM REPLAYGAIN_TRACK_PEAK 0.954468 INDEX 01 00:00:00FILE "02 - 14 - The Deadly Affair - Intrumental Main Theme (I).flac" WAVE TRACK 14 AUDIO TITLE "The Deadly Affair: Intrumental Main Theme (I)" PERFORMER "Quincy Jones" SONGWRITER "Quincy Jones" ISRC USPR36609017 REM COMMENT "Decca ‎– 537 329-6" REM REPLAYGAIN_TRACK_GAIN -1.66 dB REM REPLAYGAIN_TRACK_PEAK 0.866730 INDEX 01 00:00:00FILE "02 - 15 - The Deadly Affair - Postcard Signed 'S' - Mendel Tails Elsa - Ticket to 'S'.flac" WAVE TRACK 15 AUDIO TITLE "The Deadly Affair: Postcard Signed 'S' - Mendel Tails Elsa - Ticket to 'S'" PERFORMER "Quincy Jones" SONGWRITER "Quincy Jones" ISRC USPR36609018 REM COMMENT "Decca ‎– 537 329-6" REM REPLAYGAIN_TRACK_GAIN -3.38 dB REM REPLAYGAIN_TRACK_PEAK 0.906097 INDEX 01 00:00:00FILE "02 - 16 - The Deadly Affair - Intrumental Main Theme (II).flac" WAVE TRACK 16 AUDIO TITLE "The Deadly Affair: Intrumental Main Theme (II)" PERFORMER "Quincy Jones" SONGWRITER "Quincy Jones" ISRC USPR36609019 REM COMMENT "Decca ‎– 537 329-6" REM REPLAYGAIN_TRACK_GAIN -3.70 dB REM REPLAYGAIN_TRACK_PEAK 0.956207 INDEX 01 00:00:00FILE "02 - 17 - The Deadly Affair - Don't Fly If It's Foggy.flac" WAVE TRACK 17 AUDIO TITLE "The Deadly Affair: Don't Fly If It's Foggy" PERFORMER "Quincy Jones" SONGWRITER "Quincy Jones" ISRC USPR36609020 REM COMMENT "Decca ‎– 537 329-6" REM REPLAYGAIN_TRACK_GAIN 0.65 dB REM REPLAYGAIN_TRACK_PEAK 0.559021 INDEX 01 00:00:00FILE "02 - 18 - The Deadly Affair - Blondie-Tails.flac" WAVE TRACK 18 AUDIO TITLE "The Deadly Affair: Blondie-Tails" PERFORMER "Quincy Jones" SONGWRITER "Quincy Jones" ISRC USPR36609021 REM COMMENT "Decca ‎– 537 329-6" REM REPLAYGAIN_TRACK_GAIN -2.97 dB REM REPLAYGAIN_TRACK_PEAK 0.778656 INDEX 01 00:00:00FILE "02 - 19 - The Deadly Affair - Intrumental Main Theme (III).flac" WAVE TRACK 19 AUDIO TITLE "The Deadly Affair: Intrumental Main Theme (III)" PERFORMER "Quincy Jones" SONGWRITER "Quincy Jones" ISRC USPR36609022 REM COMMENT "Decca ‎– 537 329-6" REM REPLAYGAIN_TRACK_GAIN -2.69 dB REM REPLAYGAIN_TRACK_PEAK 0.813599 INDEX 01 00:00:00FILE "02 - 20 - The Deadly Affair - Ridiculous Scene.flac" WAVE TRACK 20 AUDIO TITLE "The Deadly Affair: Ridiculous Scene" PERFORMER "Quincy Jones" SONGWRITER "Quincy Jones" ISRC USPR36609023 REM COMMENT "Decca ‎– 537 329-6" REM REPLAYGAIN_TRACK_GAIN 0.97 dB REM REPLAYGAIN_TRACK_PEAK 0.579834 INDEX 01 00:00:00FILE "02 - 21 - The Deadly Affair - Body on Elevator.flac" WAVE TRACK 21 AUDIO TITLE "The Deadly Affair: Body on Elevator" PERFORMER "Quincy Jones" SONGWRITER "Quincy Jones" ISRC USPR36609024 REM COMMENT "Decca ‎– 537 329-6" REM REPLAYGAIN_TRACK_GAIN 5.09 dB REM REPLAYGAIN_TRACK_PEAK 0.461487 INDEX 01 00:00:00FILE "02 - 22 - The Deadly Affair - Bobb's at Gunpoint.flac" WAVE TRACK 22 AUDIO TITLE "The Deadly Affair: Bobb's at Gunpoint" PERFORMER "Quincy Jones" SONGWRITER "Quincy Jones" ISRC USPR36609025 REM COMMENT "Decca ‎– 537 329-6" REM REPLAYGAIN_TRACK_GAIN 0.47 dB REM REPLAYGAIN_TRACK_PEAK 0.629150 INDEX 01 00:00:00FILE "02 - 23 - The Deadly Affair - End Title.flac" WAVE TRACK 23 AUDIO TITLE "The Deadly Affair: End Title" PERFORMER "Quincy Jones" SONGWRITER "Quincy Jones" ISRC USPR36609026 REM COMMENT "Decca ‎– 537 329-6" REM REPLAYGAIN_TRACK_GAIN -3.90 dB REM REPLAYGAIN_TRACK_PEAK 0.956451 INDEX 01 00:00:00
CUE Corrector v. 8.3.4 / b. 859 (Jun. 01, 2018)

Quincy Jones / The Cinema of Quincy Jones

AccurateRip ID [003a6401-03c96a42-400f0f17] found. Get file: http://www.accuraterip.com/accuraterip/1/0/4/dBAR-023-003a6401-03c96a42-400f0f17.bin

AccurateRip summary:

Track 1 accurately ripped (confidence 5) [B776A00D] (AR v2)Track 2 accurately ripped (confidence 5) [3C5D7342] (AR v2)Track 3 accurately ripped (confidence 5) [FDA28DFB] (AR v2)Track 4 accurately ripped (confidence 5) [390837BC] (AR v2)Track 5 accurately ripped (confidence 5) [DB759606] (AR v2)Track 6 accurately ripped (confidence 5) [6450F439] (AR v2)Track 7 accurately ripped (confidence 5) [C72F864B] (AR v2)Track 8 accurately ripped (confidence 5) [314E9E07] (AR v2)Track 9 accurately ripped (confidence 5) [7B2A4E7E] (AR v2)Track 10 accurately ripped (confidence 5) [D59A7DE0] (AR v2)Track 11 accurately ripped (confidence 5) [B3A2F440] (AR v2)Track 12 accurately ripped (confidence 5) [5D3B8E77] (AR v2)Track 13 accurately ripped (confidence 5) [1CE1FFDE] (AR v2)Track 14 accurately ripped (confidence 5) [157593EA] (AR v2)Track 15 accurately ripped (confidence 5) [D7F109FC] (AR v2)Track 16 accurately ripped (confidence 5) [39E47F30] (AR v2)Track 17 accurately ripped (confidence 5) [A9683D49] (AR v2)Track 18 accurately ripped (confidence 5) [F5FD992B] (AR v2)Track 19 accurately ripped (confidence 5) [24AAB17D] (AR v2)Track 20 accurately ripped (confidence 5) [5659A941] (AR v2)Track 21 accurately ripped (confidence 5) [74F00BDD] (AR v2)Track 22 accurately ripped (confidence 5) [73012223] (AR v2)Track 23 accurately ripped (confidence 5) [B089B437] (AR v2)

All tracks accurately ripped

Track Peak [ CRC32 ] [W/O NULL] [ LOG ] [ ARv1 ] [ ARv2 ] -- 95.6 [7983FF49] [BC65E136] 01 82.6 [6F785746] [8E37F7D1] [2CF5AC2D] [B776A00D] 02 87.9 [67372E90] [16CA0FF2] [26A3E0A0] [3C5D7342] 03 82.9 [ACC68F98] [CC7202B2] [E5F119E7] [FDA28DFB] 04 82.9 [19EB8069] [64166E20] [D8A30020] [390837BC] 05 65.6 [FE8FD1CA] [28AB0696] [FA93C638] [DB759606] 06 82.9 [504AD805] [1B30ADCF] [E34C730C] [6450F439] 07 82.9 [C4994D39] [A7FFEC1E] [55D5B34E] [C72F864B] 08 82.9 [91D6E7C9] [341DC3C9] [E0B3EDFE] [314E9E07] 09 82.9 [DADFDE4E] [12DA08EE] [4DA092C1] [7B2A4E7E] 10 80.1 [B9D1078E] [BC79A027] [25E71BB4] [D59A7DE0] 11 82.9 [77C95F2A] [09DADFFF] [C434F319] [B3A2F440] 12 91.0 [36C579D3] [15324033] [0B7C3E1B] [5D3B8E77] 13 95.4 [75AF5BC9] [94CF2FCA] [98F3E55A] [1CE1FFDE] 14 86.6 [42FC2A25] [BFADF02D] [DE470499] [157593EA] 15 90.6 [2EA25F1F] [26EB459A] [2EF282C5] [D7F109FC] 16 95.6 [040AED12] [EC6E46D8] [07136045] [39E47F30] 17 55.9 [5F0EA46B] [1CEC1B12] [6CF24B56] [A9683D49] 18 77.8 [C9686FB8] [6625E2EC] [341F1D6C] [F5FD992B] 19 81.3 [C1928E7C] [876E858C] [2409CBA0] [24AAB17D] 20 57.9 [63BB57DF] [B065572C] [89C2C987] [5659A941] 21 46.1 [8000559B] [72C15E2E] [621CBF40] [74F00BDD] 22 62.9 [F8DE64C8] [368EADBC] [268CE324] [73012223] 23 95.6 [508C339E] [8228E62A] [7DADDD50] [B089B437]

Log created at June 06, 2018 12:04:59Time elapsed: 10.351 s

=== F66A9B110B52AD2AC92E7BF4E5FFD2B2D4D248611BD270CAB5E3E4F7872BEA48 ===
CUE Corrector v. 8.3.4 / b. 859 (Jun. 01, 2018)————————————————————————————————————————————————————————————————————————Quincy Jones / The Cinema of Quincy Jones

CUE file: The Cinema of Quincy Jones CD2.cueAudio files: 02 - 01 - Mirage - Mirage (vocal version).flac [02:23.533; FLAC • 790 kbps • 16 bit \ 44100 Hz • stereo; 13.53 MB (14 189 556 B)] 02 - 02 - Mirage - Boobie Baby.flac [03:18.947; FLAC • 689 kbps • 16 bit \ 44100 Hz • stereo; 16.35 MB (17 149 085 B)] 02 - 03 - Mirage - Shoot to Kill.flac [02:32.880; FLAC • 870 kbps • 16 bit \ 44100 Hz • stereo; 15.86 MB (16 631 571 B)] 02 - 04 - Mirage - Dead Duck.flac [03:24.067; FLAC • 799 kbps • 16 bit \ 44100 Hz • stereo; 19.46 MB (20 402 076 B)] 02 - 05 - Mirage - Purple Prose.flac [03:11.200; FLAC • 852 kbps • 16 bit \ 44100 Hz • stereo; 19.42 MB (20 367 634 B)] 02 - 06 - Mirage - Main Title.flac [02:53.920; FLAC • 782 kbps • 16 bit \ 44100 Hz • stereo; 16.22 MB (17 013 072 B)] 02 - 07 - Mirage - Mirage (instrumental version).flac [03:37.053; FLAC • 761 kbps • 16 bit \ 44100 Hz • stereo; 19.71 MB (20 668 893 B)] 02 - 08 - Mirage - Turtle's Last Lap.flac [01:43.107; FLAC • 705 kbps • 16 bit \ 44100 Hz • stereo; 8.67 MB (9 090 565 B)] 02 - 09 - Mirage - A Shot in the Park.flac [04:12.013; FLAC • 823 kbps • 16 bit \ 44100 Hz • stereo; 24.75 MB (25 954 223 B)] 02 - 10 - Mirage - Kinda Scary.flac [04:35.787; FLAC • 826 kbps • 16 bit \ 44100 Hz • stereo; 27.18 MB (28 495 319 B)] 02 - 11 - Mirage - End Title.flac [03:00.787; FLAC • 740 kbps • 16 bit \ 44100 Hz • stereo; 15.96 MB (16 736 283 B)] 02 - 12 - The Deadly Affair - Who Needs Forever.flac [03:10.173; FLAC • 880 kbps • 16 bit \ 44100 Hz • stereo; 19.95 MB (20 919 647 B)] 02 - 13 - The Deadly Affair - Dieter's First Mistake.flac [04:55.467; FLAC • 728 kbps • 16 bit \ 44100 Hz • stereo; 25.66 MB (26 910 478 B)] 02 - 14 - The Deadly Affair - Intrumental Main Theme (I).flac [02:14.053; FLAC • 793 kbps • 16 bit \ 44100 Hz • stereo; 12.67 MB (13 289 474 B)] 02 - 15 - The Deadly Affair - Postcard Signed 'S' - Mendel Tails Elsa - Ticket to 'S'.flac [05:42.933; FLAC • 807 kbps • 16 bit \ 44100 Hz • stereo; 33.01 MB (34 614 195 B)] 02 - 16 - The Deadly Affair - Intrumental Main Theme (II).flac [03:08.240; FLAC • 794 kbps • 16 bit \ 44100 Hz • stereo; 17.84 MB (18 706 272 B)] 02 - 17 - The Deadly Affair - Don't Fly If It's Foggy.flac [01:15.267; FLAC • 713 kbps • 16 bit \ 44100 Hz • stereo; 6.40 MB (6 710 375 B)] 02 - 18 - The Deadly Affair - Blondie-Tails.flac [01:21.267; FLAC • 852 kbps • 16 bit \ 44100 Hz • stereo; 8.26 MB (8 660 435 B)] 02 - 19 - The Deadly Affair - Intrumental Main Theme (III).flac [02:09.827; FLAC • 833 kbps • 16 bit \ 44100 Hz • stereo; 12.91 MB (13 533 983 B)] 02 - 20 - The Deadly Affair - Ridiculous Scene.flac [01:51.813; FLAC • 723 kbps • 16 bit \ 44100 Hz • stereo; 9.65 MB (10 115 160 B)] 02 - 21 - The Deadly Affair - Body on Elevator.flac [01:00.040; FLAC • 524 kbps • 16 bit \ 44100 Hz • stereo; 3.75 MB (3 937 126 B)] 02 - 22 - The Deadly Affair - Bobb's at Gunpoint.flac [00:48.547; FLAC • 683 kbps • 16 bit \ 44100 Hz • stereo; 3.95 MB (4 145 549 B)] 02 - 23 - The Deadly Affair - End Title.flac [01:45.067; FLAC • 834 kbps • 16 bit \ 44100 Hz • stereo; 10.45 MB (10 962 847 B)]

Accuracy: -m0

Track 01 - Mirage: Mirage (vocal version) - 100% CDDA [02:23:40]Track 02 - Mirage: Boobie Baby - 100% CDDA [03:18:71]Track 03 - Mirage: Shoot to Kill - 100% CDDA [02:32:66]Track 04 - Mirage: Dead Duck - 100% CDDA [03:24:05]Track 05 - Mirage: Purple Prose - 99% CDDA [03:11:15]Track 06 - Mirage: Main Title - 100% CDDA [02:53:69]Track 07 - Mirage: Mirage (instrumental version) - 100% CDDA [03:37:04]Track 08 - Mirage: Turtle's Last Lap - 100% CDDA [01:43:08]Track 09 - Mirage: A Shot in the Park - 100% CDDA [04:12:01]Track 10 - Mirage: Kinda Scary - 100% CDDA [04:35:59]Track 11 - Mirage: End Title - 100% CDDA [03:00:59]Track 12 - The Deadly Affair: Who Needs Forever (Astrud Gilberto) - 100% CDDA [03:10:13]Track 13 - The Deadly Affair: Dieter's First Mistake - 100% CDDA [04:55:35]Track 14 - The Deadly Affair: Intrumental Main Theme (I) - 100% CDDA [02:14:04]Track 15 - The Deadly Affair: Postcard Signed 'S' - Mendel Tails Elsa - Ticket to 'S' - 100% CDDA [05:42:70]Track 16 - The Deadly Affair: Intrumental Main Theme (II) - 100% CDDA [03:08:18]Track 17 - The Deadly Affair: Don't Fly If It's Foggy - 100% CDDA [01:15:20]Track 18 - The Deadly Affair: Blondie-Tails - 100% CDDA [01:21:20]Track 19 - The Deadly Affair: Intrumental Main Theme (III) - 100% CDDA [02:09:62]Track 20 - The Deadly Affair: Ridiculous Scene - 100% CDDA [01:51:61]Track 21 - The Deadly Affair: Body on Elevator - 100% CDDA [01:00:03]Track 22 - The Deadly Affair: Bobb's at Gunpoint - 100% CDDA [00:48:41]Track 23 - The Deadly Affair: End Title - 100% CDDA [01:45:05]————— Summary: —————These tracks looks like CDDA with probability 100%.————————————————————————————————————————————————————————————————————————

ANALYZER: auCDtect: CD records authenticity detector, version 0.8.2 Copyright (c) 2004 Oleg Berngardt. All rights reserved. Copyright (c) 2004 Alexander Djourik. All rights reserved.

Time elapsed: 2 m 53 sLog created at June 06, 2018 12:08:28

=== 19CDFB5885FD8A66DE37A154F0C292603270695F1F8B1212C562656D623982A0 ===
</div>
</div>

Трекер:  [ 10-Июн-2018 00:36 ]

  

Скачать .torrent

Размер .torrent файла 61 KB


Размер: 2.22 GB
Хэш (hash) релиза: ab66a298b5be22fcdf35eb74248a8478a643bd7f

Еще никто не оставлял запись к записи скачать торрент . Будь первым!

!Обратная связь