DescargasMega.com - Peliculas 2015 Online Gratis! | The Halcyon | Download

Скачать порно через торрент Kagikko L-only UnionPeer.org бесплатно онлайн HD качество

Скачать новое порно 2015, 2014 новинки через торрент UnionPeer.org

Порно торрент бесплатно ЮнионПир.орг

Статистика раздачи
Размер:  3.33 GB   |    Зарегистрирован:  2 месяца 4 дня   |    .torrent скачан:  436 раз   |   
Раздают:  1  
   
загрузка...
 
Автор Сообщение

Galfimbul

avatar Galfimbul


Kagikko L-only
かぎっコ ろんりぃ

Год выпуска: 2018
Жанр: small breast, virgin, oral, creampie, various
Серии: ep. 1 of 1
Продолжительность: 2h
Цензура: Есть во всех файлах

Озвучка: Японская оригинальная
Субтитры: Японские встроенные неотключаемые (хардсаб)

Студия: kate_sai

Описание: Two people live next to each other in a desolated housing complex where people have less communication than before... They had been separated apart by a wall, but now they are getting very close to each other thanks to a key! A life in a housing complex, syrupy-sultry-lovey-dovey-chu-chu with a blond-haired girl next door! A blue-eyed blond girl, Alice Terada. Her mother''s treatment is close to the child neglect. She is alone in her school, frequently bullied by classmates due to her peculiar hair and eyes. She can feel tranquility only when together with "Oniichan" next door, who always gives her kind greetings with affectionate smiles. Usually, she kind of hesitates to chat with him. But one day, when she lost the key and is at a loss before the door, "Oniichan" helps her. This event triggers further events! Alice''s body and mind have long been locked in the loneliness... Who will open?

CV: Chiroru Ohyama

http://www.dlsite.com/ecchi-eng/work/=/product_id/RE224455.html

Доп. информация: Объединил все фрагменты без перекодирования.

Качество видео: GAMErip
Разрешение видео: 720p
Формат видео: MP4
Видео: 1000-750, 4-3, 24 fps, AVC, 3762 kbps
Аудио: jpn, AAC, Stereo, 48.0 KHz, 192 kbps
General
Unique ID : 161850752337973003609075728557206337148 (0x79C352300024E29CE4809925DD66F67C)
Complete name : Kagikko_L-only_[93C170B5].mkv
Format : Matroska
Format version : Version 4 / Version 2
File size : 3.33 GiB
Duration : 2 h 0 min
Overall bit rate : 3 954 kb/s
Encoded date : UTC 2018-06-09 14:03:58
Writing application : mkvmerge v23.0.0 (''The Bride Said No'') 64-bit
Writing library : libebml v1.3.6 + libmatroska v1.4.9

Video
ID : 1
Format : AVC
Format/Info : Advanced Video Codec
Format profile : [email protected]
Format settings : CABAC / 3 Ref Frames
Format settings, CABAC : Yes
Format settings, RefFrames : 3 frames
Codec ID : V_MPEG4/ISO/AVC
Duration : 2 h 0 min
Bit rate : 3 762 kb/s
Width : 1 000 pixels
Height : 750 pixels
Display aspect ratio : 4:3
Frame rate mode : Constant
Frame rate : 24.000 FPS
Standard : NTSC
Color space : YUV
Chroma subsampling : 4:2:0
Bit depth : 8 bits
Scan type : Progressive
Bits/(Pixel*Frame) : 0.209
Stream size : 3.17 GiB (95%)
Title : Kagikko L-only
Language : Japanese
Default : Yes
Forced : No
Color range : Limited
Color primaries : BT.709
Transfer characteristics : BT.709
Matrix coefficients : BT.709

Audio
ID : 2
Format : AAC
Format/Info : Advanced Audio Codec
Format profile : LC
Codec ID : A_AAC-2
Duration : 2 h 0 min
Bit rate : 192 kb/s
Channel(s) : 2 channels
Channel positions : Front: L R
Sampling rate : 48.0 kHz
Frame rate : 46.875 FPS (1024 SPF)
Compression mode : Lossy
Stream size : 163 MiB (5%)
Title : jpn
Language : Japanese
Default : Yes
Forced : No


Трекер:  [ 10-Июн-2018 00:01 ]

  

Скачать .torrent

Размер .torrent файла 17 KB


Размер: 3.33 GB
Хэш (hash) релиза: efb59fa3f46019573e0f3470806f1575310b8c1d

Торренты, похожие на Kagikko L-only скачать торрент

Форум Название Автор Размер S L Добавлен
Хентайные и эротические игры ·· Kagikko L-only (kate sai) [cen] [2018, animation, 3DCG, small breast, virgin, oral, creampie] [jap] Galfimbul 38391827413.58 GB 0 0 1528839402

00:36

13-Июн-18

Еще никто не оставлял запись к записи скачать торрент Kagikko L-only . Будь первым!

!Обратная связь