Modelling magazines 2018-05 | saison 7, épisode 5 Active Measures | Season 3 Episode 14 Mommy Dearest

Скачать через торрент музыку Интервью с Путиным. Оливер Стоун Oliver Stones The Putin Interviews бесплатно без регистрации torrent

Статистика раздачи
Размер:  402 MB   |    Зарегистрирован:  15 дней   |    .torrent скачан:  31 раз   |   
Раздают:  1  
   
загрузка...
 
Автор Сообщение

Galfimbul

avatar Galfimbul


Интервью с Путиным. Оливер Стоун |
Oliver Stone's The Putin Interviews
Жанр: Score
Композитор: Jeff Beal
Год выпуска диска: 2017
Страна-производитель диска: USA
Издатель (лейбл): Varese Sarabande
Номер по каталогу: 302 067 505 8
Аудиокодек: FLAC (*.flac)
Тип рипа: tracks+.cue
Битрейт аудио: lossless
Продолжительность: 01:18:38
Источник: собственный рип
Наличие сканов в содержимом раздачи: да, 600 dpi, jpg
Limited edition of 1000 copies.
1. The Putin Interviews, Main Title Theme (01:07)2. No Rules (01:10)3. Poverty Line To President (03:21)4. The Lives Of Others (02:35)5. Second Chechen War (02:16)6. Seeds Of Al-Queda (02:01)7. Supporting Russians In Chechnya (03:20)8. Expanding NATO (01:28)9. Oceania (01:36)10. Process And Painting (00:53)11. The Reagan Method (01:42)12. Victory Day (00:47)13. Treaties (02:29)14. ABM Missiles (01:18)15. Always Hope (05:36)16. Hungry For War (02:06)17. Targeted Intelligence (01:23)18. Snowden Arrives In Moscow (05:19)19. Lucky Man (02:15)20. Maidan Massacre (03:21)21. Special Forces Attack (01:49)22. Crimean Referendum (02:06)23. Welcome To The Kremlin (03:15)24. Updates Around The Globe (02:07)25. Syrian Air Strikes (04:03)26. How Big Is ISIS (02:10)27. Setting Up The Shot (01:30)28. Hackers From Russia (02:42)29. Living In The Old World (01:33)30. Banking Cyber Attack (01:08)31. Sending A Message (05:00)32. Greater Wealth (00:56)33. They Admired Him (01:22)34. It’s Time, Finale (02:54)
Exact Audio Copy V1.3 from 2. September 2016

EAC extraction logfile from 9. June 2018, 12:15

Jeff Beal / Oliver Stone's The Putin Interviews

Used drive : PLEXTOR DVDR PX-L890SA Adapter: 1 ID: 0

Read mode : SecureUtilize accurate stream : YesDefeat audio cache : YesMake use of C2 pointers : No

Read offset correction : 6Overread into Lead-In and Lead-Out : NoFill up missing offset samples with silence : YesDelete leading and trailing silent blocks : NoNull samples used in CRC calculations : YesUsed interface : Native Win32 interface for Win NT & 2000Gap handling : Appended to previous track

Used output format : User Defined EncoderSelected bitrate : 1024 kBit/sQuality : HighAdd ID3 tag : NoCommand line compressor : C:\Program Files\Exact Audio Copy\Flac\flac.exeAdditional command line options : -V -8 -T "Genre=%genre%" -T "Artist=%artist%" -T "Title=%title%" -T "Album=%albumtitle%" -T "Date=%year%" -T "Tracknumber=%tracknr%" -T "Comment=%comment%" %source%

TOC of the extracted CD

Track | Start | Length | Start sector | End sector --------------------------------------------------------- 1 | 0:00.00 | 1:06.70 | 0 | 5019 2 | 1:06.70 | 1:10.05 | 5020 | 10274 3 | 2:17.00 | 3:21.25 | 10275 | 25374 4 | 5:38.25 | 2:34.39 | 25375 | 36963 5 | 8:12.64 | 2:16.31 | 36964 | 47194 6 | 10:29.20 | 2:00.52 | 47195 | 56246 7 | 12:29.72 | 3:20.08 | 56247 | 71254 8 | 15:50.05 | 1:27.55 | 71255 | 77834 9 | 17:17.60 | 1:36.20 | 77835 | 85054 10 | 18:54.05 | 0:53.37 | 85055 | 89066 11 | 19:47.42 | 1:41.68 | 89067 | 96709 12 | 21:29.35 | 0:46.61 | 96710 | 100220 13 | 22:16.21 | 2:28.49 | 100221 | 111369 14 | 24:44.70 | 1:18.33 | 111370 | 117252 15 | 26:03.28 | 5:36.09 | 117253 | 142461 16 | 31:39.37 | 2:06.09 | 142462 | 151920 17 | 33:45.46 | 1:23.28 | 151921 | 158173 18 | 35:08.74 | 5:19.21 | 158174 | 182119 19 | 40:28.20 | 2:15.28 | 182120 | 192272 20 | 42:43.48 | 3:21.00 | 192273 | 207347 21 | 46:04.48 | 1:48.42 | 207348 | 215489 22 | 47:53.15 | 2:06.19 | 215490 | 224958 23 | 49:59.34 | 3:15.07 | 224959 | 239590 24 | 53:14.41 | 2:06.65 | 239591 | 249105 25 | 55:21.31 | 4:02.72 | 249106 | 267327 26 | 59:24.28 | 2:10.01 | 267328 | 277078 27 | 61:34.29 | 1:29.47 | 277079 | 283800 28 | 63:04.01 | 2:41.58 | 283801 | 295933 29 | 65:45.59 | 1:33.38 | 295934 | 302946 30 | 67:19.22 | 1:08.32 | 302947 | 308078 31 | 68:27.54 | 4:59.69 | 308079 | 330572 32 | 73:27.48 | 0:55.56 | 330573 | 334753 33 | 74:23.29 | 1:21.62 | 334754 | 340890 34 | 75:45.16 | 2:53.69 | 340891 | 353934

Track 1

Filename F:\torrent\Putin Interviews_Jeff Beal\score\01. Jeff Beal - The Putin Interviews, Main Title Theme.wav

Pre-gap length 0:00:02.00

Peak level 97.9 % Extraction speed 1.4 X Track quality 100.0 % Test CRC 3D1B2964 Copy CRC 3D1B2964 Accurately ripped (confidence 1) [80842D87] (AR v2) Copy OK

Track 2

Filename F:\torrent\Putin Interviews_Jeff Beal\score\02. Jeff Beal - No Rules.wav

Peak level 98.3 % Extraction speed 1.1 X Track quality 99.8 % Test CRC AB03D54C Copy CRC AB03D54C Accurately ripped (confidence 1) [6A3846FC] (AR v2) Copy OK

Track 3

Filename F:\torrent\Putin Interviews_Jeff Beal\score\03. Jeff Beal - Poverty Line To President.wav

Peak level 97.3 % Extraction speed 2.1 X Track quality 100.0 % Test CRC 1268526B Copy CRC 1268526B Accurately ripped (confidence 1) [6AD45833] (AR v2) Copy OK

Track 4

Filename F:\torrent\Putin Interviews_Jeff Beal\score\04. Jeff Beal - The Lives of Others.wav

Peak level 79.5 % Extraction speed 2.1 X Track quality 100.0 % Test CRC AC466BF8 Copy CRC AC466BF8 Accurately ripped (confidence 1) [CC9BEC2B] (AR v2) Copy OK

Track 5

Filename F:\torrent\Putin Interviews_Jeff Beal\score\05. Jeff Beal - Second Chechen War.wav

Peak level 97.8 % Extraction speed 1.8 X Track quality 99.9 % Test CRC A80D913F Copy CRC A80D913F Accurately ripped (confidence 1) [88DB5129] (AR v2) Copy OK

Track 6

Filename F:\torrent\Putin Interviews_Jeff Beal\score\06. Jeff Beal - Seeds of Al-Queda.wav

Peak level 95.7 % Extraction speed 2.2 X Track quality 100.0 % Test CRC 5F8CB750 Copy CRC 5F8CB750 Accurately ripped (confidence 1) [5CEAE508] (AR v2) Copy OK

Track 7

Filename F:\torrent\Putin Interviews_Jeff Beal\score\07. Jeff Beal - Supporting Russians In Chechnya.wav

Peak level 98.1 % Extraction speed 2.5 X Track quality 100.0 % Test CRC 4CFD7BE9 Copy CRC 4CFD7BE9 Accurately ripped (confidence 1) [EBF968FF] (AR v2) Copy OK

Track 8

Filename F:\torrent\Putin Interviews_Jeff Beal\score\08. Jeff Beal - Expanding NATO.wav

Peak level 98.2 % Extraction speed 2.2 X Track quality 100.0 % Test CRC 976F86DA Copy CRC 976F86DA Accurately ripped (confidence 1) [4E724702] (AR v2) Copy OK

Track 9

Filename F:\torrent\Putin Interviews_Jeff Beal\score\09. Jeff Beal - Oceania.wav

Peak level 60.9 % Extraction speed 1.8 X Track quality 99.8 % Test CRC CE1F9456 Copy CRC CE1F9456 Accurately ripped (confidence 1) [1F912056] (AR v2) Copy OK

Track 10

Filename F:\torrent\Putin Interviews_Jeff Beal\score\10. Jeff Beal - Process and Painting.wav

Peak level 77.4 % Extraction speed 1.8 X Track quality 100.0 % Test CRC B80A49F5 Copy CRC B80A49F5 Accurately ripped (confidence 1) [105E6E8F] (AR v2) Copy OK

Track 11

Filename F:\torrent\Putin Interviews_Jeff Beal\score\11. Jeff Beal - The Reagan Method.wav

Peak level 97.9 % Extraction speed 1.9 X Track quality 99.8 % Test CRC 73831084 Copy CRC 73831084 Accurately ripped (confidence 1) [DB355716] (AR v2) Copy OK

Track 12

Filename F:\torrent\Putin Interviews_Jeff Beal\score\12. Jeff Beal - Victory Day.wav

Peak level 97.1 % Extraction speed 1.3 X Track quality 99.7 % Test CRC EA34E7F8 Copy CRC EA34E7F8 Accurately ripped (confidence 1) [DBEC2350] (AR v2) Copy OK

Track 13

Filename F:\torrent\Putin Interviews_Jeff Beal\score\13. Jeff Beal - Treaties.wav

Peak level 98.0 % Extraction speed 2.7 X Track quality 100.0 % Test CRC 283CFC44 Copy CRC 283CFC44 Accurately ripped (confidence 1) [D0700EEF] (AR v2) Copy OK

Track 14

Filename F:\torrent\Putin Interviews_Jeff Beal\score\14. Jeff Beal - ABM Missiles.wav

Peak level 98.3 % Extraction speed 2.3 X Track quality 100.0 % Test CRC 847B8389 Copy CRC 847B8389 Accurately ripped (confidence 1) [1737F1DF] (AR v2) Copy OK

Track 15

Filename F:\torrent\Putin Interviews_Jeff Beal\score\15. Jeff Beal - Always Hope.wav

Peak level 98.1 % Extraction speed 3.3 X Track quality 100.0 % Test CRC 989E67C7 Copy CRC 989E67C7 Accurately ripped (confidence 1) [F5A4760B] (AR v2) Copy OK

Track 16

Filename F:\torrent\Putin Interviews_Jeff Beal\score\16. Jeff Beal - Hungry For War.wav

Peak level 98.2 % Extraction speed 2.9 X Track quality 100.0 % Test CRC 16F96F1F Copy CRC 16F96F1F Accurately ripped (confidence 1) [73DBC801] (AR v2) Copy OK

Track 17

Filename F:\torrent\Putin Interviews_Jeff Beal\score\17. Jeff Beal - Targeted Intelligence.wav

Peak level 97.8 % Extraction speed 2.6 X Track quality 100.0 % Test CRC 93E9FF22 Copy CRC 93E9FF22 Accurately ripped (confidence 1) [2037A3ED] (AR v2) Copy OK

Track 18

Filename F:\torrent\Putin Interviews_Jeff Beal\score\18. Jeff Beal - Snowden Arrives In Moscow.wav

Peak level 98.4 % Extraction speed 3.5 X Track quality 100.0 % Test CRC 8E7F10D1 Copy CRC 8E7F10D1 Accurately ripped (confidence 1) [F47D49E8] (AR v2) Copy OK

Track 19

Filename F:\torrent\Putin Interviews_Jeff Beal\score\19. Jeff Beal - Lucky Man.wav

Peak level 82.5 % Extraction speed 3.2 X Track quality 100.0 % Test CRC 0E281155 Copy CRC 0E281155 Accurately ripped (confidence 1) [B3AB6C1F] (AR v2) Copy OK

Track 20

Filename F:\torrent\Putin Interviews_Jeff Beal\score\20. Jeff Beal - Maidan Massacre.wav

Peak level 91.2 % Extraction speed 3.5 X Track quality 100.0 % Test CRC 0988668D Copy CRC 0988668D Accurately ripped (confidence 1) [F95C827B] (AR v2) Copy OK

Track 21

Filename F:\torrent\Putin Interviews_Jeff Beal\score\21. Jeff Beal - Special Forces Attack.wav

Peak level 94.9 % Extraction speed 2.5 X Track quality 99.9 % Test CRC 5F8C6BC7 Copy CRC 5F8C6BC7 Accurately ripped (confidence 1) [4115FA92] (AR v2) Copy OK

Track 22

Filename F:\torrent\Putin Interviews_Jeff Beal\score\22. Jeff Beal - Crimean Referendum.wav

Peak level 97.9 % Extraction speed 3.3 X Track quality 100.0 % Test CRC 3E10C78D Copy CRC 3E10C78D Accurately ripped (confidence 1) [9969AB1F] (AR v2) Copy OK

Track 23

Filename F:\torrent\Putin Interviews_Jeff Beal\score\23. Jeff Beal - Welcome To the Kremlin.wav

Peak level 97.8 % Extraction speed 3.7 X Track quality 100.0 % Test CRC EB472BA3 Copy CRC EB472BA3 Accurately ripped (confidence 1) [BEC2B046] (AR v2) Copy OK

Track 24

Filename F:\torrent\Putin Interviews_Jeff Beal\score\24. Jeff Beal - Updates Around the Globe.wav

Peak level 88.0 % Extraction speed 3.4 X Track quality 100.0 % Test CRC 0E728C24 Copy CRC 0E728C24 Accurately ripped (confidence 1) [1C88B4D1] (AR v2) Copy OK

Track 25

Filename F:\torrent\Putin Interviews_Jeff Beal\score\25. Jeff Beal - Syrian Air Strikes.wav

Peak level 97.9 % Extraction speed 3.9 X Track quality 100.0 % Test CRC 6A093DC6 Copy CRC 6A093DC6 Accurately ripped (confidence 1) [562F159B] (AR v2) Copy OK

Track 26

Filename F:\torrent\Putin Interviews_Jeff Beal\score\26. Jeff Beal - How Big Is ISIS.wav

Peak level 84.4 % Extraction speed 3.6 X Track quality 100.0 % Test CRC 36B2E1A8 Copy CRC 36B2E1A8 Accurately ripped (confidence 1) [DEBFF337] (AR v2) Copy OK

Track 27

Filename F:\torrent\Putin Interviews_Jeff Beal\score\27. Jeff Beal - Setting Up the Shot.wav

Peak level 98.1 % Extraction speed 2.5 X Track quality 99.8 % Test CRC B6105798 Copy CRC B6105798 Accurately ripped (confidence 1) [34C8F172] (AR v2) Copy OK

Track 28

Filename F:\torrent\Putin Interviews_Jeff Beal\score\28. Jeff Beal - Hackers From Russia.wav

Peak level 97.8 % Extraction speed 3.9 X Track quality 100.0 % Test CRC 0A022CB9 Copy CRC 0A022CB9 Accurately ripped (confidence 1) [77DEF19C] (AR v2) Copy OK

Track 29

Filename F:\torrent\Putin Interviews_Jeff Beal\score\29. Jeff Beal - Living In the Old World.wav

Peak level 95.8 % Extraction speed 3.4 X Track quality 100.0 % Test CRC 88AE80E5 Copy CRC 88AE80E5 Accurately ripped (confidence 1) [DD99595E] (AR v2) Copy OK

Track 30

Filename F:\torrent\Putin Interviews_Jeff Beal\score\30. Jeff Beal - Banking Cyber Attack.wav

Peak level 74.5 % Extraction speed 3.0 X Track quality 100.0 % Test CRC FB15ABDD Copy CRC FB15ABDD Accurately ripped (confidence 1) [9F8FA090] (AR v2) Copy OK

Track 31

Filename F:\torrent\Putin Interviews_Jeff Beal\score\31. Jeff Beal - Sending a Message.wav

Peak level 98.1 % Extraction speed 4.4 X Track quality 100.0 % Test CRC 572E2516 Copy CRC 572E2516 Accurately ripped (confidence 1) [E3CC09AD] (AR v2) Copy OK

Track 32

Filename F:\torrent\Putin Interviews_Jeff Beal\score\32. Jeff Beal - Greater Wealth.wav

Peak level 80.3 % Extraction speed 2.1 X Track quality 99.8 % Test CRC CE5B3B89 Copy CRC CE5B3B89 Accurately ripped (confidence 1) [E4B5ABC8] (AR v2) Copy OK

Track 33

Filename F:\torrent\Putin Interviews_Jeff Beal\score\33. Jeff Beal - They Admired Him.wav

Peak level 49.4 % Extraction speed 3.4 X Track quality 100.0 % Test CRC 888FBD0E Copy CRC 888FBD0E Accurately ripped (confidence 1) [8516289E] (AR v2) Copy OK

Track 34

Filename F:\torrent\Putin Interviews_Jeff Beal\score\34. Jeff Beal - It's Time, Finale.wav

Peak level 98.0 % Extraction speed 4.1 X Track quality 100.0 % Test CRC 38917074 Copy CRC 38917074 Accurately ripped (confidence 1) [C75DF968] (AR v2) Copy OK

All tracks accurately ripped

No errors occurred

End of status report

---- CUETools DB Plugin V2.1.6

[CTDB TOCID: PJMw8.zqm9OpYSx_Iam_BkwXQU8-] foundSubmit result: PJMw8.zqm9OpYSx_Iam_BkwXQU8- has been confirmedTrack | CTDB Status 1 | (3/3) Accurately ripped 2 | (3/3) Accurately ripped 3 | (3/3) Accurately ripped 4 | (3/3) Accurately ripped 5 | (3/3) Accurately ripped 6 | (3/3) Accurately ripped 7 | (3/3) Accurately ripped 8 | (3/3) Accurately ripped 9 | (3/3) Accurately ripped 10 | (3/3) Accurately ripped 11 | (3/3) Accurately ripped 12 | (3/3) Accurately ripped 13 | (3/3) Accurately ripped 14 | (3/3) Accurately ripped 15 | (3/3) Accurately ripped 16 | (3/3) Accurately ripped 17 | (3/3) Accurately ripped 18 | (3/3) Accurately ripped 19 | (3/3) Accurately ripped 20 | (3/3) Accurately ripped 21 | (3/3) Accurately ripped 22 | (3/3) Accurately ripped 23 | (3/3) Accurately ripped 24 | (3/3) Accurately ripped 25 | (3/3) Accurately ripped 26 | (3/3) Accurately ripped 27 | (3/3) Accurately ripped 28 | (3/3) Accurately ripped 29 | (3/3) Accurately ripped 30 | (3/3) Accurately ripped 31 | (3/3) Accurately ripped 32 | (3/3) Accurately ripped 33 | (3/3) Accurately ripped 34 | (3/3) Accurately ripped

==== Log checksum D2545022F9BA3F1B001113A12D0CA28B7385A46FCB7C424468B0FA88B7032D39 ====
REM GENRE SoundtrackREM DATE 2017REM DISCID F4126F22REM COMMENT "ExactAudioCopy v1.3"CATALOG 0030206750584PERFORMER "Jeff Beal"TITLE "Oliver Stone's The Putin Interviews"REM COMPOSER ""FILE "01. Jeff Beal - The Putin Interviews, Main Title Theme.wav" WAVE TRACK 01 AUDIO TITLE "The Putin Interviews, Main Title Theme" PERFORMER "Jeff Beal" REM COMPOSER "" ISRC US3M51750501 INDEX 01 00:00:00FILE "02. Jeff Beal - No Rules.wav" WAVE TRACK 02 AUDIO TITLE "No Rules" PERFORMER "Jeff Beal" REM COMPOSER "" ISRC US3M51750502 INDEX 01 00:00:00FILE "03. Jeff Beal - Poverty Line To President.wav" WAVE TRACK 03 AUDIO TITLE "Poverty Line To President" PERFORMER "Jeff Beal" REM COMPOSER "" ISRC US3M51750503 INDEX 01 00:00:00FILE "04. Jeff Beal - The Lives of Others.wav" WAVE TRACK 04 AUDIO TITLE "The Lives of Others" PERFORMER "Jeff Beal" REM COMPOSER "" ISRC US3M51750504 INDEX 01 00:00:00FILE "05. Jeff Beal - Second Chechen War.wav" WAVE TRACK 05 AUDIO TITLE "Second Chechen War" PERFORMER "Jeff Beal" REM COMPOSER "" ISRC US3M51750505 INDEX 01 00:00:00FILE "06. Jeff Beal - Seeds of Al-Queda.wav" WAVE TRACK 06 AUDIO TITLE "Seeds of Al-Queda" PERFORMER "Jeff Beal" REM COMPOSER "" ISRC US3M51750506 INDEX 01 00:00:00FILE "07. Jeff Beal - Supporting Russians In Chechnya.wav" WAVE TRACK 07 AUDIO TITLE "Supporting Russians In Chechnya" PERFORMER "Jeff Beal" REM COMPOSER "" ISRC US3M51750507 INDEX 01 00:00:00FILE "08. Jeff Beal - Expanding NATO.wav" WAVE TRACK 08 AUDIO TITLE "Expanding NATO" PERFORMER "Jeff Beal" REM COMPOSER "" ISRC US3M51750508 INDEX 01 00:00:00FILE "09. Jeff Beal - Oceania.wav" WAVE TRACK 09 AUDIO TITLE "Oceania" PERFORMER "Jeff Beal" REM COMPOSER "" ISRC US3M51750509 INDEX 01 00:00:00FILE "10. Jeff Beal - Process and Painting.wav" WAVE TRACK 10 AUDIO TITLE "Process and Painting" PERFORMER "Jeff Beal" REM COMPOSER "" ISRC US3M51750510 INDEX 01 00:00:00FILE "11. Jeff Beal - The Reagan Method.wav" WAVE TRACK 11 AUDIO TITLE "The Reagan Method" PERFORMER "Jeff Beal" REM COMPOSER "" ISRC US3M51750511 INDEX 01 00:00:00FILE "12. Jeff Beal - Victory Day.wav" WAVE TRACK 12 AUDIO TITLE "Victory Day" PERFORMER "Jeff Beal" REM COMPOSER "" ISRC US3M51750512 INDEX 01 00:00:00FILE "13. Jeff Beal - Treaties.wav" WAVE TRACK 13 AUDIO TITLE "Treaties" PERFORMER "Jeff Beal" REM COMPOSER "" ISRC US3M51750513 INDEX 01 00:00:00FILE "14. Jeff Beal - ABM Missiles.wav" WAVE TRACK 14 AUDIO TITLE "ABM Missiles" PERFORMER "Jeff Beal" REM COMPOSER "" ISRC US3M51750514 INDEX 01 00:00:00FILE "15. Jeff Beal - Always Hope.wav" WAVE TRACK 15 AUDIO TITLE "Always Hope" PERFORMER "Jeff Beal" REM COMPOSER "" ISRC US3M51750515 INDEX 01 00:00:00FILE "16. Jeff Beal - Hungry For War.wav" WAVE TRACK 16 AUDIO TITLE "Hungry For War" PERFORMER "Jeff Beal" REM COMPOSER "" ISRC US3M51750516 INDEX 01 00:00:00FILE "17. Jeff Beal - Targeted Intelligence.wav" WAVE TRACK 17 AUDIO TITLE "Targeted Intelligence" PERFORMER "Jeff Beal" REM COMPOSER "" ISRC US3M51750517 INDEX 01 00:00:00FILE "18. Jeff Beal - Snowden Arrives In Moscow.wav" WAVE TRACK 18 AUDIO TITLE "Snowden Arrives In Moscow" PERFORMER "Jeff Beal" REM COMPOSER "" ISRC US3M51750518 INDEX 01 00:00:00FILE "19. Jeff Beal - Lucky Man.wav" WAVE TRACK 19 AUDIO TITLE "Lucky Man" PERFORMER "Jeff Beal" REM COMPOSER "" ISRC US3M51750519 INDEX 01 00:00:00FILE "20. Jeff Beal - Maidan Massacre.wav" WAVE TRACK 20 AUDIO TITLE "Maidan Massacre" PERFORMER "Jeff Beal" REM COMPOSER "" ISRC US3M51750520 INDEX 01 00:00:00FILE "21. Jeff Beal - Special Forces Attack.wav" WAVE TRACK 21 AUDIO TITLE "Special Forces Attack" PERFORMER "Jeff Beal" REM COMPOSER "" ISRC US3M51750522 INDEX 01 00:00:00FILE "22. Jeff Beal - Crimean Referendum.wav" WAVE TRACK 22 AUDIO TITLE "Crimean Referendum" PERFORMER "Jeff Beal" REM COMPOSER "" ISRC US3M51750521 INDEX 01 00:00:00FILE "23. Jeff Beal - Welcome To the Kremlin.wav" WAVE TRACK 23 AUDIO TITLE "Welcome To the Kremlin" PERFORMER "Jeff Beal" REM COMPOSER "" ISRC US3M51750523 INDEX 01 00:00:00FILE "24. Jeff Beal - Updates Around the Globe.wav" WAVE TRACK 24 AUDIO TITLE "Updates Around the Globe" PERFORMER "Jeff Beal" REM COMPOSER "" ISRC US3M51750524 INDEX 01 00:00:00FILE "25. Jeff Beal - Syrian Air Strikes.wav" WAVE TRACK 25 AUDIO TITLE "Syrian Air Strikes" PERFORMER "Jeff Beal" REM COMPOSER "" ISRC US3M51750525 INDEX 01 00:00:00FILE "26. Jeff Beal - How Big Is ISIS.wav" WAVE TRACK 26 AUDIO TITLE "How Big Is ISIS" PERFORMER "Jeff Beal" REM COMPOSER "" ISRC US3M51750526 INDEX 01 00:00:00FILE "27. Jeff Beal - Setting Up the Shot.wav" WAVE TRACK 27 AUDIO TITLE "Setting Up the Shot" PERFORMER "Jeff Beal" REM COMPOSER "" ISRC US3M51750527 INDEX 01 00:00:00FILE "28. Jeff Beal - Hackers From Russia.wav" WAVE TRACK 28 AUDIO TITLE "Hackers From Russia" PERFORMER "Jeff Beal" REM COMPOSER "" ISRC US3M51750528 INDEX 01 00:00:00FILE "29. Jeff Beal - Living In the Old World.wav" WAVE TRACK 29 AUDIO TITLE "Living In the Old World" PERFORMER "Jeff Beal" REM COMPOSER "" ISRC US3M51750529 INDEX 01 00:00:00FILE "30. Jeff Beal - Banking Cyber Attack.wav" WAVE TRACK 30 AUDIO TITLE "Banking Cyber Attack" PERFORMER "Jeff Beal" REM COMPOSER "" ISRC US3M51750530 INDEX 01 00:00:00FILE "31. Jeff Beal - Sending a Message.wav" WAVE TRACK 31 AUDIO TITLE "Sending a Message" PERFORMER "Jeff Beal" REM COMPOSER "" ISRC US3M51750531 INDEX 01 00:00:00FILE "32. Jeff Beal - Greater Wealth.wav" WAVE TRACK 32 AUDIO TITLE "Greater Wealth" PERFORMER "Jeff Beal" REM COMPOSER "" ISRC US3M51750532 INDEX 01 00:00:00FILE "33. Jeff Beal - They Admired Him.wav" WAVE TRACK 33 AUDIO TITLE "They Admired Him" PERFORMER "Jeff Beal" REM COMPOSER "" ISRC US3M51750533 INDEX 01 00:00:00FILE "34. Jeff Beal - It's Time, Finale.wav" WAVE TRACK 34 AUDIO TITLE "It's Time, Finale" PERFORMER "Jeff Beal" REM COMPOSER "" ISRC US3M51750534 INDEX 01 00:00:00


Трекер:  [ 09-Июн-2018 21:06 ]

  

Скачать .torrent

Размер .torrent файла 19 KB


Размер: 402 MB
Хэш (hash) релиза: 7678326e560a76828c21c1da5c8a83ad51c6c4ee

Еще никто не оставлял запись к записи скачать торрент Интервью с Путиным. Оливер Стоун Oliver Stones The Putin Interviews . Будь первым!

!Обратная связь