Higher Power | July 2017 (227) | Elsie Robson

Скачать через торрент Восемь бусин на тонкой ниточке Серии: 1-2 из 2 Фильм бесплатно в хорошем качестве torrent

Скачивайте на UnionPeer.org фильмы через торрент без регистрации. Новинки кино в хорошем качестве через торрент. На UnionPeer.org можно скачать через торрент фильмы 2014 и 2015 годов. Самые новые фильмы.

Скачать торрент Восемь бусин на тонкой ниточке Серии: 1-2 из 2 бесплатно через .torrent фильм мультфильм сериал

Статистика раздачи
Размер:  1.17 GB   |    Зарегистрирован:  15 дней   |    .torrent скачан:  67 раз   |   
Раздают:  1  
   
загрузка...
 
Автор Сообщение

Galfimbul

avatar Galfimbul


Восемь бусин на тонкой ниточке

Год выпуска: 2018
Производство: Свэлл-Фильм
Жанр: детектив, экранизация
Продолжительность: ~00:46:00 серия
Субтитры: нет

Режиссёр: Марат Ким

В ролях: Людмила Зайцева, Мария Козлова , Александр Устюгов, Руслан Чернецкий, Владимир Иванов , Виталий Альшанский, Надежда Анципович, Игорь Сеньков, Юлия Молчанова, Елизавета Фалей

Описание: Маша Успенская даже не догадывалась, какая многочисленная у неё родня, пока её не отыскала тётушка Марфа Степановна и не пригласила на свой юбилей. Отложив все дела, Маша едет к тётушке в деревню, предвкушая знакомство с двоюродными братьями и сёстрами. Однако выясняется истинная причина, по которой Марфа собрала всех на своё 70-летие. Десять лет назад произошло убийство, и убийца – кто-то из собравшихся.

Реклама: Нет.

Кинопоиск

Sample

Качество: WEBRip - Files-x
Формат: AVI
Видео кодек: XviD
Аудио кодек: AC3
Видео: 720x400 (1.80:1), 25 fps, XviD build 73 ~1600 kbps avg, 0.221 bit/pixel
Аудио: 48.0 kHz, AC3 Dolby Digital, 2/0 (L,R) ch, ~ 192 kbps
General
Complete name : D:\Восемь.бусин.на.тонкой.ниточке.2018.WEB-DLRip.Files-x\01.Восемь.бусин.на.тонкой.ниточке.2018.WEB-DLRip.Files-x.avi
Format : AVI
Format/Info : Audio Video Interleave
File size : 602 MiB
Duration : 46 min 51 s
Overall bit rate : 1 795 kb/s
Writing application : VirtualDubMod 1.5.10.3 | www.virtualdub-fr.org || (build 2550/release)
Writing library : VirtualDubMod build 2550/release

Video
ID : 0
Format : MPEG-4 Visual
Format profile : Advanced [email protected]
Format settings : BVOP1 / Custom Matrix
Format settings, BVOP : 1
Format settings, QPel : No
Format settings, GMC : No warppoints
Format settings, Matrix : Custom
Codec ID : XVID
Codec ID/Hint : XviD
Duration : 46 min 51 s
Bit rate : 1 593 kb/s
Width : 720 pixels
Height : 400 pixels
Display aspect ratio : 16:9
Frame rate : 25.000 FPS
Color space : YUV
Chroma subsampling : 4:2:0
Bit depth : 8 bits
Scan type : Progressive
Compression mode : Lossy
Bits/(Pixel*Frame) : 0.221
Stream size : 534 MiB (89%)
Writing library : XviD 73

Audio
ID : 1
Format : AC-3
Format/Info : Audio Coding 3
Codec ID : 2000
Duration : 46 min 51 s
Bit rate mode : Constant
Bit rate : 192 kb/s
Channel(s) : 2 channels
Channel positions : Front: L R
Sampling rate : 48.0 kHz
Frame rate : 31.250 FPS (1536 SPF)
Bit depth : 16 bits
Compression mode : Lossy
Stream size : 64.3 MiB (11%)
Alignment : Split accross interleaves
Interleave, duration : 40 ms (1.00 video frame)
Interleave, preload duratio : 500 ms
Service kind : Complete Main


Трекер:  [ 09-Июн-2018 20:42 ]

  

Скачать .torrent

Размер .torrent файла 12 KB


Размер: 1.17 GB
Хэш (hash) релиза: e38a51fcc9a85a9d02182ac85a8fc17d18ef04f5
Подписка на обновления:

Торренты, похожие на Восемь бусин на тонкой ниточке Серии: 1-2 из 2 скачать торрент

Форум Название Автор Размер S L Добавлен
Российские сериалы ·· Восемь бусин на тонкой ниточке / Серии: 1-2 из 2 (Марат Ким) [2017,детектив, экранизация, SATRip-AVC] aleksan55 13042756041.21 GB 0 0 1528554323

17:25

9-Июн-18

Еще никто не оставлял запись к записи скачать торрент Восемь бусин на тонкой ниточке Серии: 1-2 из 2 . Будь первым!

!Обратная связь