Garth Merkeley | épisode 10 streaming Who Are You? | The Secret Man (2017) Neue link: 2018/01/08 Views: 6011 Länge: 103 min IMDB rating: 6.4 Uploaded: 2018/01/08 The Secret Man 2017

Скачать через торрент музыку VA - O Bofe - 2006, FLAC бесплатно без регистрации torrent

Статистика раздачи
Размер:  223 MB   |    Зарегистрирован:  13 дней   |    .torrent скачан:  28 раз   |   
Раздают:  1  
   
загрузка...
 
Автор Сообщение

Galfimbul

avatar Galfimbul


VA - O Bofe

Жанр: Pop, Funk, Soul, Soundtrack
Год выпуска диска: 2006
Страна-производитель диска: Brazil
Издатель (лейбл): Som Livre
Номер по каталогу: 0548-2
Аудиокодек: FLAC (*.flac)
Тип рипа: tracks+.cue
Битрейт аудио: lossless
Продолжительность: 00:32:33
Источник: artmuss
Наличие сканов в содержимом раздачи: да

Треклист:
01. Renata e Flávio - Fala Dorival
02. Jacks Wu - Instantes
03. Elza Soares - Rainha de Roda
04. Osmar Milito, Luna E Suza - Porcelana, Vidro E Louça
05. Nelson Motta - Madame Sabe Tudo
06. Osmar Milito e Quarteto Forma - O Bofe
07. Eustáquio Sena - Perdido no Mundo
08. Djalma Dias - Quem Mandou
09. Sandra - Só de Brincadeira
10. Betinho - Moço
11. Os Vips - Grego Só
12. Cláudio Faissal - Mapa do Tesouro
Exact Audio Copy V1.2 from 12. August 2016

EAC extraction logfile from 16. April 2018, 0:15

Various / O Bofe - Músicas De Roberto Carlos E Erasmo Carlos

Used drive : TSSTcorpCDDVDW SH-224BB Adapter: 1 ID: 0

Read mode : SecureUtilize accurate stream : YesDefeat audio cache : YesMake use of C2 pointers : No

Read offset correction : 6Overread into Lead-In and Lead-Out : NoFill up missing offset samples with silence : YesDelete leading and trailing silent blocks : NoNull samples used in CRC calculations : YesUsed interface : Native Win32 interface for Win NT & 2000Gap handling : Appended to previous track

Used output format : User Defined EncoderSelected bitrate : 1024 kBit/sQuality : HighAdd ID3 tag : NoCommand line compressor : C:\Program Files (x86)\Exact Audio Copy\flac-1.3.2-win\win64\flac.exeAdditional command line options : -8 -V -T "ARTIST=%artist%" -T "TITLE=%title%" -T "ALBUM=%albumtitle%" -T "DATE=%year%" -T "TRACKNUMBER=%tracknr%" -T "TOTALTRACKS=%numtracks%" -T "GENRE=%genre%" -T "ALBUMARTIST=%albumartist%" -T "COMPOSER=%composer%" -T "ALBUMCOMPOSER=%albumcomposer%" -T "ALBUM ARTIST=%albumartist%" -T "COMMENT=EAC Secure Mode, Test & Copy, AccurateRip, FLAC -8" %source%

TOC of the extracted CD

Track | Start | Length | Start sector | End sector --------------------------------------------------------- 1 | 0:00.00 | 2:25.64 | 0 | 10938 2 | 2:25.64 | 3:06.35 | 10939 | 24923 3 | 5:32.24 | 2:25.18 | 24924 | 35816 4 | 7:57.42 | 2:03.12 | 35817 | 45053 5 | 10:00.54 | 2:18.65 | 45054 | 55468 6 | 12:19.44 | 2:18.53 | 55469 | 65871 7 | 14:38.22 | 2:57.12 | 65872 | 79158 8 | 17:35.34 | 2:01.25 | 79159 | 88258 9 | 19:36.59 | 3:36.03 | 88259 | 104461 10 | 23:12.62 | 3:04.27 | 104462 | 118288 11 | 26:17.14 | 3:27.58 | 118289 | 133871 12 | 29:44.72 | 2:45.47 | 133872 | 146293

Track 1

Filename C:\Users\Public\Music\Exact Audio Copy\01 Fala Dorival.wav

Pre-gap length 0:00:02.00

Peak level 100.0 % Extraction speed 1.8 X Track quality 100.0 % Test CRC 67360141 Copy CRC 67360141 Accurately ripped (confidence 1) [755AE0FC] (AR v2) Copy OK

Track 2

Filename C:\Users\Public\Music\Exact Audio Copy\02 Instantes.wav

Peak level 100.0 % Extraction speed 1.9 X Track quality 100.0 % Test CRC 10A6274D Copy CRC 10A6274D Accurately ripped (confidence 1) [4E3F1971] (AR v2) Copy OK

Track 3

Filename C:\Users\Public\Music\Exact Audio Copy\03 Rainha de Roda.wav

Peak level 98.1 % Extraction speed 1.8 X Track quality 100.0 % Test CRC F71ADEC1 Copy CRC F71ADEC1 Accurately ripped (confidence 1) [387AF590] (AR v2) Copy OK

Track 4

Filename C:\Users\Public\Music\Exact Audio Copy\04 Porcelana, Vidro E Louça.wav

Peak level 99.1 % Extraction speed 1.4 X Track quality 99.9 % Test CRC 0A1603EE Copy CRC 0A1603EE Accurately ripped (confidence 1) [55017328] (AR v2) Copy OK

Track 5

Filename C:\Users\Public\Music\Exact Audio Copy\05 Madame Sabe Tudo.wav

Peak level 99.1 % Extraction speed 1.8 X Track quality 100.0 % Test CRC 8AEBA43B Copy CRC 8AEBA43B Accurately ripped (confidence 1) [5E66806D] (AR v2) Copy OK

Track 6

Filename C:\Users\Public\Music\Exact Audio Copy\06 O Bofe.wav

Peak level 99.0 % Extraction speed 1.8 X Track quality 100.0 % Test CRC 076B766F Copy CRC 076B766F Accurately ripped (confidence 1) [84C1F108] (AR v2) Copy OK

Track 7

Filename C:\Users\Public\Music\Exact Audio Copy\07 Perdido no Mundo.wav

Peak level 98.8 % Extraction speed 1.8 X Track quality 100.0 % Test CRC 02B8DBEC Copy CRC 02B8DBEC Accurately ripped (confidence 1) [8B27A466] (AR v2) Copy OK

Track 8

Filename C:\Users\Public\Music\Exact Audio Copy\08 Quem Mandou.wav

Peak level 98.7 % Extraction speed 1.6 X Track quality 100.0 % Test CRC 45BCF022 Copy CRC 45BCF022 Accurately ripped (confidence 1) [E8BB6110] (AR v2) Copy OK

Track 9

Filename C:\Users\Public\Music\Exact Audio Copy\09 Só de Brincadeira.wav

Peak level 98.5 % Extraction speed 1.9 X Track quality 100.0 % Test CRC AFB2128E Copy CRC AFB2128E Accurately ripped (confidence 1) [A40F4DB3] (AR v2) Copy OK

Track 10

Filename C:\Users\Public\Music\Exact Audio Copy\10 Moço.wav

Peak level 99.5 % Extraction speed 1.9 X Track quality 100.0 % Test CRC 4855B5A4 Copy CRC 4855B5A4 Accurately ripped (confidence 1) [2312A74D] (AR v2) Copy OK

Track 11

Filename C:\Users\Public\Music\Exact Audio Copy\11 Grego Só.wav

Peak level 97.5 % Extraction speed 1.8 X Track quality 100.0 % Test CRC B37EE794 Copy CRC B37EE794 Accurately ripped (confidence 1) [1A41CD50] (AR v2) Copy OK

Track 12

Filename C:\Users\Public\Music\Exact Audio Copy\12 Mapa do Tesouro.wav

Peak level 98.7 % Extraction speed 1.7 X Track quality 100.0 % Test CRC 0F5D56AF Copy CRC 0F5D56AF Accurately ripped (confidence 1) [DBFF5EA9] (AR v2) Copy OK

All tracks accurately ripped

No errors occurred

End of status report

---- CUETools DB Plugin V2.1.6

[CTDB TOCID: LTPr44Ty6XZW2Klkqt0J1kQfauQ-] disk not present in databaseSubmit result: LTPr44Ty6XZW2Klkqt0J1kQfauQ- has been uploaded

==== Log checksum 331A4827410FAD8CB89BDCB2BC43791B78323598E1F7E3B136C89837754947D1 ====

------------------------------------------------------------

Exact Audio Copy V1.2 from 12. August 2016

EAC extraction logfile from 16. April 2018, 0:15

Various / O Bofe - Músicas De Roberto Carlos E Erasmo Carlos

Used drive : TSSTcorpCDDVDW SH-224BB Adapter: 1 ID: 0

Read mode : SecureUtilize accurate stream : YesDefeat audio cache : YesMake use of C2 pointers : No

Read offset correction : 6Overread into Lead-In and Lead-Out : NoFill up missing offset samples with silence : YesDelete leading and trailing silent blocks : NoNull samples used in CRC calculations : YesUsed interface : Native Win32 interface for Win NT & 2000Gap handling : Appended to previous track

Used output format : User Defined EncoderSelected bitrate : 1024 kBit/sQuality : HighAdd ID3 tag : NoCommand line compressor : C:\Program Files (x86)\Exact Audio Copy\flac-1.3.2-win\win64\flac.exeAdditional command line options : -8 -V -T "ARTIST=%artist%" -T "TITLE=%title%" -T "ALBUM=%albumtitle%" -T "DATE=%year%" -T "TRACKNUMBER=%tracknr%" -T "TOTALTRACKS=%numtracks%" -T "GENRE=%genre%" -T "ALBUMARTIST=%albumartist%" -T "COMPOSER=%composer%" -T "ALBUMCOMPOSER=%albumcomposer%" -T "ALBUM ARTIST=%albumartist%" -T "COMMENT=EAC Secure Mode, Test & Copy, AccurateRip, FLAC -8" %source%

TOC of the extracted CD

Track | Start | Length | Start sector | End sector --------------------------------------------------------- 1 | 0:00.00 | 2:25.64 | 0 | 10938 2 | 2:25.64 | 3:06.35 | 10939 | 24923 3 | 5:32.24 | 2:25.18 | 24924 | 35816 4 | 7:57.42 | 2:03.12 | 35817 | 45053 5 | 10:00.54 | 2:18.65 | 45054 | 55468 6 | 12:19.44 | 2:18.53 | 55469 | 65871 7 | 14:38.22 | 2:57.12 | 65872 | 79158 8 | 17:35.34 | 2:01.25 | 79159 | 88258 9 | 19:36.59 | 3:36.03 | 88259 | 104461 10 | 23:12.62 | 3:04.27 | 104462 | 118288 11 | 26:17.14 | 3:27.58 | 118289 | 133871 12 | 29:44.72 | 2:45.47 | 133872 | 146293

Track 1

Filename C:\Users\Public\Music\Exact Audio Copy\01 Fala Dorival.wav

Pre-gap length 0:00:02.00

Peak level 100.0 % Extraction speed 1.8 X Track quality 100.0 % Test CRC 67360141 Copy CRC 67360141 Accurately ripped (confidence 1) [755AE0FC] (AR v2) Copy OK

Track 2

Filename C:\Users\Public\Music\Exact Audio Copy\02 Instantes.wav

Peak level 100.0 % Extraction speed 1.9 X Track quality 100.0 % Test CRC 10A6274D Copy CRC 10A6274D Accurately ripped (confidence 1) [4E3F1971] (AR v2) Copy OK

Track 3

Filename C:\Users\Public\Music\Exact Audio Copy\03 Rainha de Roda.wav

Peak level 98.1 % Extraction speed 1.8 X Track quality 100.0 % Test CRC F71ADEC1 Copy CRC F71ADEC1 Accurately ripped (confidence 1) [387AF590] (AR v2) Copy OK

Track 4

Filename C:\Users\Public\Music\Exact Audio Copy\04 Porcelana, Vidro E Louça.wav

Peak level 99.1 % Extraction speed 1.4 X Track quality 99.9 % Test CRC 0A1603EE Copy CRC 0A1603EE Accurately ripped (confidence 1) [55017328] (AR v2) Copy OK

Track 5

Filename C:\Users\Public\Music\Exact Audio Copy\05 Madame Sabe Tudo.wav

Peak level 99.1 % Extraction speed 1.8 X Track quality 100.0 % Test CRC 8AEBA43B Copy CRC 8AEBA43B Accurately ripped (confidence 1) [5E66806D] (AR v2) Copy OK

Track 6

Filename C:\Users\Public\Music\Exact Audio Copy\06 O Bofe.wav

Peak level 99.0 % Extraction speed 1.8 X Track quality 100.0 % Test CRC 076B766F Copy CRC 076B766F Accurately ripped (confidence 1) [84C1F108] (AR v2) Copy OK

Track 7

Filename C:\Users\Public\Music\Exact Audio Copy\07 Perdido no Mundo.wav

Peak level 98.8 % Extraction speed 1.8 X Track quality 100.0 % Test CRC 02B8DBEC Copy CRC 02B8DBEC Accurately ripped (confidence 1) [8B27A466] (AR v2) Copy OK

Track 8

Filename C:\Users\Public\Music\Exact Audio Copy\08 Quem Mandou.wav

Peak level 98.7 % Extraction speed 1.6 X Track quality 100.0 % Test CRC 45BCF022 Copy CRC 45BCF022 Accurately ripped (confidence 1) [E8BB6110] (AR v2) Copy OK

Track 9

Filename C:\Users\Public\Music\Exact Audio Copy\09 Só de Brincadeira.wav

Peak level 98.5 % Extraction speed 1.9 X Track quality 100.0 % Test CRC AFB2128E Copy CRC AFB2128E Accurately ripped (confidence 1) [A40F4DB3] (AR v2) Copy OK

Track 10

Filename C:\Users\Public\Music\Exact Audio Copy\10 Moço.wav

Peak level 99.5 % Extraction speed 1.9 X Track quality 100.0 % Test CRC 4855B5A4 Copy CRC 4855B5A4 Accurately ripped (confidence 1) [2312A74D] (AR v2) Copy OK

Track 11

Filename C:\Users\Public\Music\Exact Audio Copy\11 Grego Só.wav

Peak level 97.5 % Extraction speed 1.8 X Track quality 100.0 % Test CRC B37EE794 Copy CRC B37EE794 Accurately ripped (confidence 1) [1A41CD50] (AR v2) Copy OK

Track 12

Filename C:\Users\Public\Music\Exact Audio Copy\12 Mapa do Tesouro.wav

Peak level 98.7 % Extraction speed 1.7 X Track quality 100.0 % Test CRC 0F5D56AF Copy CRC 0F5D56AF Accurately ripped (confidence 1) [DBFF5EA9] (AR v2) Copy OK

All tracks accurately ripped

No errors occurred

End of status report

---- CUETools DB Plugin V2.1.6

[CTDB TOCID: LTPr44Ty6XZW2Klkqt0J1kQfauQ-] disk not present in databaseSubmit result: LTPr44Ty6XZW2Klkqt0J1kQfauQ- has been uploaded

==== Log checksum 331A4827410FAD8CB89BDCB2BC43791B78323598E1F7E3B136C89837754947D1 ====
REM GENRE "Trilha Sonora de Novela"REM DATE 1972REM DISCID AB079E0CREM COMMENT "ExactAudioCopy v1.2"PERFORMER "Various"TITLE "O Bofe - Músicas De Roberto Carlos E Erasmo Carlos"REM COMPOSER ""FILE "01 Fala Dorival.wav" WAVE TRACK 01 AUDIO TITLE "Fala Dorival" PERFORMER "Renata e Flávio" REM COMPOSER "" INDEX 01 00:00:00FILE "02 Instantes.wav" WAVE TRACK 02 AUDIO TITLE "Instantes" PERFORMER "Jacks Wu" REM COMPOSER "" INDEX 01 00:00:00FILE "03 Rainha de Roda.wav" WAVE TRACK 03 AUDIO TITLE "Rainha de Roda" PERFORMER "Elza Soares" REM COMPOSER "" INDEX 01 00:00:00FILE "04 Porcelana, Vidro E Louça.wav" WAVE TRACK 04 AUDIO TITLE "Porcelana, Vidro E Louça" PERFORMER "Osmar Milito, Luna E Suza" REM COMPOSER "" INDEX 01 00:00:00FILE "05 Madame Sabe Tudo.wav" WAVE TRACK 05 AUDIO TITLE "Madame Sabe Tudo" PERFORMER "Nelson Motta" REM COMPOSER "" INDEX 01 00:00:00FILE "06 O Bofe.wav" WAVE TRACK 06 AUDIO TITLE "O Bofe" PERFORMER "Osmar Milito e Quarteto Forma" REM COMPOSER "" INDEX 01 00:00:00FILE "07 Perdido no Mundo.wav" WAVE TRACK 07 AUDIO TITLE "Perdido no Mundo" PERFORMER "Eustáquio Sena" REM COMPOSER "" INDEX 01 00:00:00FILE "08 Quem Mandou.wav" WAVE TRACK 08 AUDIO TITLE "Quem Mandou" PERFORMER "Djalma Dias" REM COMPOSER "" INDEX 01 00:00:00FILE "09 Só de Brincadeira.wav" WAVE TRACK 09 AUDIO TITLE "Só de Brincadeira" PERFORMER "Sandra" REM COMPOSER "" INDEX 01 00:00:00FILE "10 Moço.wav" WAVE TRACK 10 AUDIO TITLE "Moço" PERFORMER "Betinho" REM COMPOSER "" INDEX 01 00:00:00FILE "11 Grego Só.wav" WAVE TRACK 11 AUDIO TITLE "Grego Só" PERFORMER "Os Vips" REM COMPOSER "" INDEX 01 00:00:00FILE "12 Mapa do Tesouro.wav" WAVE TRACK 12 AUDIO TITLE "Mapa do Tesouro" PERFORMER "Cláudio Faissal" REM COMPOSER "" INDEX 01 00:00:00
foobar2000 1.1.10 / Dynamic Range Meter 1.1.1log date: 2018-06-09 12:23:11

--------------------------------------------------------------------------------Analyzed: Betinho / O Bofe - Músicas De Roberto Carlos E Erasmo Carlos (1) Cláudio Faissal / O Bofe - Músicas De Roberto Carlos E Erasmo Carlos (2) Djalma Dias / O Bofe - Músicas De Roberto Carlos E Erasmo Carlos (3) Elza Soares / O Bofe - Músicas De Roberto Carlos E Erasmo Carlos (4) Eustáquio Sena / O Bofe - Músicas De Roberto Carlos E Erasmo Carlos (5) Jacks Wu / O Bofe - Músicas De Roberto Carlos E Erasmo Carlos (6) Nelson Motta / O Bofe - Músicas De Roberto Carlos E Erasmo Carlos (7) Os Vips / O Bofe - Músicas De Roberto Carlos E Erasmo Carlos (8) Osmar Milito e Quarteto Forma / O Bofe - Músicas De Roberto Carlos E Erasmo Carlos (9) Osmar Milito, Luna E Suza / O Bofe - Músicas De Roberto Carlos E Erasmo Carlos (10) Renata e Flávio / O Bofe - Músicas De Roberto Carlos E Erasmo Carlos (11) Sandra / O Bofe - Músicas De Roberto Carlos E Erasmo Carlos (12)--------------------------------------------------------------------------------

DR Peak RMS Duration Track--------------------------------------------------------------------------------DR8 -0.04 dB -9.51 dB 3:04 ?-MoçoDR8 -0.11 dB -9.62 dB 2:46 ?-Mapa do TesouroDR8 -0.11 dB -10.02 dB 2:01 ?-Quem MandouDR7 -0.16 dB -8.69 dB 2:25 ?-Rainha de RodaDR7 -0.10 dB -8.80 dB 2:57 ?-Perdido no MundoDR6 0.00 dB -8.51 dB 3:06 ?-InstantesDR8 -0.08 dB -10.09 dB 2:19 ?-Madame Sabe TudoDR9 -0.21 dB -12.04 dB 3:28 ?-Grego SóDR7 -0.09 dB -8.60 dB 2:19 ?-O BofeDR7 -0.08 dB -8.89 dB 2:03 ?-Porcelana, Vidro E LouçaDR7 0.00 dB -9.12 dB 2:26 ?-Fala DorivalDR8 -0.12 dB -9.62 dB 3:36 ?-Só de Brincadeira--------------------------------------------------------------------------------

Number of tracks: 12Official DR value: DR8

Samplerate: 44100 HzChannels: 2Bits per sample: 16Bitrate: 923 kbpsCodec: FLAC================================================================================
Music composed and recorded exclusively for 'O Bofe' (soap opera aired july 1972 - january 1973 on Globo TV channel)

Раздаю до первых 5-ти скачавших, на раздачи не возвращаюсь...


Трекер:  [ 09-Июн-2018 14:06 ]

  

Скачать .torrent

Размер .torrent файла 19 KB


Размер: 223 MB
Хэш (hash) релиза: bc110f0edfb97fe52d21b6d2abf25f92549ca2e9

Еще никто не оставлял запись к записи скачать торрент VA - O Bofe - 2006, FLAC . Будь первым!

!Обратная связь