May D – 9lives Ft Oskido Mayorkun Mp3 | Fear the Walking Dead | Episode n° 17

Скачать через торрент [ATV3] Излом времени A Wrinkle in Time бесплатно русская версия torrent активатор

Статистика раздачи
Размер:  7.16 GB   |    Зарегистрирован:  16 дней   |    .torrent скачан:  29 раз   |   
Раздают:  1  
   
загрузка...
 
Автор Сообщение

Galfimbul

avatar Galfimbul


Излом времени / A Wrinkle in Time
«Be a warrior»

4.750 / 10 4.10 / 10
Год выпуска: 2018
Страна: США
Жанр: Фантастика, фэнтези, приключения, семейный
Продолжительность: 01:49:37

Перевод: Дублированный (iTunes)
Оригинальная аудиодорожка: Есть
Cубтитры: Русские, Английские
Режиссёр: Ава ДюВерней
Сценарий: Дженнифер Ли, Джефф Стокуэлл, Мадлен Л’Энгл
Продюсер: Катрин Хэнд, Адам Борба, Дуглас С. Меррифилд
Оператор: Тобиас Э. Шлисслер
Композитор: Рамин Джавади
Художник: Наоми Шохан, Грег Хупер, Грегори С. Хупер
Монтаж: Спенсер Эверик
В ролях: Сторм Рейд, Опра Уинфри, Риз Уизерспун, Минди Кейлинг, Леви Миллер, Дерик Маккейб, Крис Пайн, Гугу Эмбата-Ро, Зак Галифианакис, Майкл Пенья

Бюджет: $103 000 000
Сборы в России: $6 381 978

Мировая премьера: 26 февраля 2018
Премьера (РФ): 8 марта 2018, «WDSSPR»

Цифровой релиз: 8 июня 2018, «Уолт Дисней Компани СНГ»

Описание: Юная Мэг вместе с младшим братом и школьным приятелем решает отправиться на поиски своего отца, учёного-физика, пропавшего в ходе научного эксперимента. Найти его предстоит не в привычном мире, а в таинственных изломах времени и пространства, где понятие реальности относительно и ничему нельзя верить! Выбраться из фантастических миров и победить тьму, которая распространяется по вселенной, можно, только изучив себя и приняв свои недостатки.
Качество исходника: Blu-Ray (BlueBird)
Качество: BDRip
Тип: HD (1080p)
Контейнер: M4V
Видео: H.264, 1920x800, 2.40:1, 8 000 Kbps, 23.976 (24000/1001) fps

Аудио 1: Русский/Дублированный (iTunes), AAC / 2.0 / 160 Kbps / 48.0 KHz
Аудио 2: Английский/Оригинальная дорожка , AAC / 2.0 / 160 Kbps / 48.0 KHz
Аудио 3: Русский/Дублированный (iTunes), AC-3 / 5.1 / 384 Kbps / 48.0 KHz
Аудио 4: Английский/Оригинальная дорожка , AC-3 / 5.1 / 640 Kbps / 48.0 KHz

Субтитры 1: Русские полные
Субтитры 2: Английские полные
Sort Name: Wrinkle In Time
XID: Apple:vendor_id:2018-506223
contentID: 1353642886
Copyright: © 2017 Disney Enterprises, Inc. All Rights Reserved.
Screenwriters: Дженнифер Ли, Джефф Стокуэлл, Мадлен Л’Энгл
Producers: Катрин Хэнд, Адам Борба, Дуглас С. Меррифилд
Director: Ава ДюВерней
Cast: Сторм Рейд, Опра Уинфри, Риз Уизерспун, Минди Кейлинг, Леви Миллер, Дерик Маккейб, Крис Пайн, Гугу Эмбата-Ро, Зак Галифианакис, Майкл Пенья
Studio: Walt Disney Pictures
Rating Annotation: Rated PG for thematics element and some peril.
Rating: 3
Long Description: Юная Мэг вместе с младшим братом и школьным приятелем решает отправиться на поиски своего отца, учёного-физика, пропавшего в ходе научного эксперимента. Найти его предстоит не в привычном мире, а в таинственных изломах времени и пространства, где понятие реальности относительно и ничему нельзя верить! Выбраться из фантастических миров и победить тьму, которая распространяется по вселенной, можно, только изучив себя и приняв свои недостатки.
Description: Юная Мэг вместе с младшим братом и школьным приятелем решает отправиться на поиски своего отца, учёного-физика, пропавшего в ходе научного эксперимента. Найти его предстоит не в привычном мире, а в таинственных изломах времени и пространства, где понятие реальности относительно и ничему нельзя верить!
Release Date: 2018-02-26T08:00:00Z
Genre: Action & Adventure
Artist: Ava DuVernay
Name: A Wrinkle In Time (2018)
General
Complete name                            : /Users/imac/HandBrake/A Wrinkle In Time (1080p HD).m4v
Format                                   : MPEG-4
Codec ID                                 : M4V  (M4V /M4A /mp42/isom)
File size                                : 7.16 GiB
Duration                                 : 1h 49mn
Overall bit rate mode                    : Variable
Overall bit rate                         : 9 330 Kbps
Movie name                               : A Wrinkle In Time (2018)
Performer                                : Ava DuVernay
Director                                 : Ава ДюВерней
Actor                                    : Сторм Рейд / Опра Уинфри / Риз Уизерспун / Минди Кейлинг / Леви Миллер / Дерик Маккейб / Крис Пайн / Гугу Эмбата-Ро / Зак Галифианакис / Майкл Пенья
Screenplay by                            : Дженнифер Ли / Джефф Стокуэлл / Мадлен Л’Энгл
Producer                                 : Катрин Хэнд / Адам Борба / Дуглас С. Меррифилд
Production studio                        : Walt Disney Pictures
Genre                                    : Action & Adventure
ContentType                              : Short Film
Description                              : Юная Мэг вместе с младшим братом и школьным приятелем решает отправиться на поиски своего отца, учёного-физика, пропавшего в ходе научного эксперимента. Найти его предстоит не в привычном мире, а в таинственных изломах времени и пространства, где понятие реальности относительно и ничему нельзя верить!
Recorded date                            : UTC 2018-02-26 08:00:00
Encoded date                             : UTC 2018-06-09 09:16:05
Tagged date                              : UTC 2018-06-09 09:16:52
Copyright                                : © 2017 Disney Enterprises, Inc. All Rights Reserved.
Cover                                    : Yes
Rating                                   : None
Title/Sort                               : Wrinkle In Time
LongDescription                          : Юная Мэг вместе с младшим братом и школьным приятелем решает отправиться на поиски своего отца, учёного-физика, пропавшего в ходе научного эксперимента. Найти его предстоит не в привычном мире, а в таинственных изломах времени и пространства, где понятие реальности относительно и ничему нельзя верить! Выбраться из фантастических миров и победить тьму, которая распространяется по вселенной, можно, только изучив себя и приняв свои недостатки.
AppleStoreCatalogID                      : 1353642886
Vendor                                   : Apple:vendor_id:2018-506223
ContentRating                            : mpaa|PG|200|Rated PG for thematics element and some peril.

Video #1
ID                                       : 1
Format                                   : AVC
Format/Info                              : Advanced Video Codec
Format profile                           : [email protected]
Format settings                          : CABAC / 4 Ref Frames
Format settings, CABAC                   : Yes
Format settings, ReFrames                : 4 frames
Codec ID                                 : avc1
Codec ID/Info                            : Advanced Video Coding
Duration                                 : 1h 49mn
Source duration                          : 1h 49mn
Bit rate                                 : 8 000 Kbps
Width                                    : 1 920 pixels
Height                                   : 800 pixels
Display aspect ratio                     : 2.40:1
Frame rate mode                          : Variable
Frame rate                               : 23.976 (24000/1001) fps
Minimum frame rate                       : 23.974 fps
Maximum frame rate                       : 23.981 fps
Color space                              : YUV
Chroma subsampling                       : 4:2:0
Bit depth                                : 8 bits
Scan type                                : Progressive
Bits/(Pixel*Frame)                       : 0.217
Stream size                              : 6.12 GiB (86%)
Source stream size                       : 6.12 GiB (86%)
Title                                    : Main Program
Writing library                          : x264 core 155 r2893 b00bcaf
Encoding settings                        : cabac=1 / ref=4 / deblock=1:-2:-2 / analyse=0x3:0x133 / me=umh / subme=10 / psy=1 / psy_rd=1.00:0.15 / mixed_ref=1 / me_range=32 / chroma_me=1 / trellis=2 / 8x8dct=1 / cqm=0 / deadzone=21,11 / fast_pskip=1 / chroma_qp_offset=-3 / threads=25 / lookahead_threads=6 / sliced_threads=0 / nr=0 / decimate=0 / interlaced=0 / bluray_compat=0 / constrained_intra=0 / bframes=16 / b_pyramid=2 / b_adapt=2 / b_bias=0 / direct=3 / weightb=1 / open_gop=0 / weightp=2 / keyint=240 / keyint_min=24 / scenecut=40 / intra_refresh=0 / rc_lookahead=40 / rc=2pass / mbtree=1 / bitrate=8000 / ratetol=1.0 / qcomp=0.70 / qpmin=0 / qpmax=69 / qpstep=4 / cplxblur=20.0 / qblur=0.5 / ip_ratio=1.40 / aq=1:1.00
Language                                 : English
Encoded date                             : UTC 2018-06-09 09:16:05
Tagged date                              : UTC 2018-06-09 09:16:21
Color range                              : Limited
Color primaries                          : BT.709
Transfer characteristics                 : BT.709
Matrix coefficients                      : BT.709
Menus                                    : 8,9

Video #2
ID                                       : 9
Format                                   : JPEG
Codec ID                                 : jpeg
Duration                                 : 1h 49mn
Bit rate mode                            : Variable
Bit rate                                 : 450 bps
Width                                    : 640 pixels
Height                                   : 266 pixels
Display aspect ratio                     : 2.40:1
Frame rate mode                          : Variable
Frame rate                               : 0.002 fps
Minimum frame rate                       : 0.002 fps
Maximum frame rate                       : 0.005 fps
Color space                              : YUV
Chroma subsampling                       : 4:2:0
Bit depth                                : 8 bits
Compression mode                         : Lossy
Bits/(Pixel*Frame)                       : 1.322
Stream size                              : 384 KiB (0%)
Title                                    : Chapter Images
Language                                 : English
Default                                  : No
Encoded date                             : UTC 2018-06-09 09:16:32
Tagged date                              : UTC 2018-06-09 09:16:32
Menu For                                 : 1
ColorSpace_ICC                           : RGB

Audio #1
ID                                       : 2
Format                                   : AAC
Format/Info                              : Advanced Audio Codec
Format profile                           : LC
Codec ID                                 : mp4a-40-2
Duration                                 : 1h 49mn
Source duration                          : 1h 49mn
Bit rate mode                            : Variable
Bit rate                                 : 157 Kbps
Maximum bit rate                         : 226 Kbps
Channel(s)                               : 2 channels
Channel positions                        : Front: L R
Sampling rate                            : 48.0 KHz
Frame rate                               : 46.875 fps (1024 SPF)
Compression mode                         : Lossy
Stream size                              : 124 MiB (2%)
Source stream size                       : 124 MiB (2%)
Title                                    : Russian Stereo
Language                                 : Russian
Default                                  : Yes
Alternate group                          : 1
Encoded date                             : UTC 2018-06-09 09:16:05
Tagged date                              : UTC 2018-06-09 09:16:26
Menus                                    : 8

Audio #2
ID                                       : 3
Format                                   : AAC
Format/Info                              : Advanced Audio Codec
Format profile                           : LC
Codec ID                                 : mp4a-40-2
Duration                                 : 1h 49mn
Source duration                          : 1h 49mn
Bit rate mode                            : Variable
Bit rate                                 : 159 Kbps
Maximum bit rate                         : 239 Kbps
Channel(s)                               : 2 channels
Channel positions                        : Front: L R
Sampling rate                            : 48.0 KHz
Frame rate                               : 46.875 fps (1024 SPF)
Compression mode                         : Lossy
Stream size                              : 125 MiB (2%)
Source stream size                       : 125 MiB (2%)
Title                                    : English Stereo
Language                                 : English
Default                                  : No
Alternate group                          : 1
Encoded date                             : UTC 2018-06-09 09:16:05
Tagged date                              : UTC 2018-06-09 09:16:26

Audio #3
ID                                       : 4
Format                                   : AC-3
Format/Info                              : Audio Coding 3
Codec ID                                 : ac-3
Duration                                 : 1h 49mn
Bit rate mode                            : Constant
Bit rate                                 : 384 Kbps
Channel(s)                               : 6 channels
Channel positions                        : Front: L C R, Side: L R, LFE
Sampling rate                            : 48.0 KHz
Frame rate                               : 31.250 fps (1536 SPF)
Bit depth                                : 16 bits
Compression mode                         : Lossy
Stream size                              : 302 MiB (4%)
Title                                    : Russian DD 5.1
Language                                 : Russian
Service kind                             : Complete Main
Default                                  : No
Alternate group                          : 1
Encoded date                             : UTC 2018-06-09 09:16:05
Tagged date                              : UTC 2018-06-09 09:16:16

Audio #4
ID                                       : 5
Format                                   : AC-3
Format/Info                              : Audio Coding 3
Codec ID                                 : ac-3
Duration                                 : 1h 49mn
Bit rate mode                            : Constant
Bit rate                                 : 640 Kbps
Channel(s)                               : 6 channels
Channel positions                        : Front: L C R, Side: L R, LFE
Sampling rate                            : 48.0 KHz
Frame rate                               : 31.250 fps (1536 SPF)
Bit depth                                : 16 bits
Compression mode                         : Lossy
Stream size                              : 502 MiB (7%)
Title                                    : English DD 5.1
Language                                 : English
Service kind                             : Complete Main
Default                                  : No
Alternate group                          : 1
Encoded date                             : UTC 2018-06-09 09:16:05
Tagged date                              : UTC 2018-06-09 09:16:16

Text #1
ID                                       : 6
Format                                   : Timed Text
Muxing mode                              : sbtl
Codec ID                                 : tx3g
Duration                                 : 1h 39mn
Bit rate mode                            : Variable
Bit rate                                 : 82 bps
Stream size                              : 59.5 KiB (0%)
Title                                    : Russian full
Language                                 : Russian
Default                                  : Yes
Forced                                   : No
Alternate group                          : 2
Encoded date                             : UTC 2018-06-09 09:16:05
Tagged date                              : UTC 2018-06-09 09:16:05

Text #2
ID                                       : 7
Format                                   : Timed Text
Muxing mode                              : sbtl
Codec ID                                 : tx3g
Duration                                 : 1h 46mn
Bit rate mode                            : Variable
Bit rate                                 : 54 bps
Stream size                              : 42.1 KiB (0%)
Title                                    : English full
Language                                 : English
Default                                  : No
Forced                                   : No
Alternate group                          : 2
Encoded date                             : UTC 2018-06-09 09:16:05
Tagged date                              : UTC 2018-06-09 09:16:05

Menu #1
00:00:00.000                             : 00:00:00.000
00:09:39.871                             : 00:09:39.871
00:13:46.868                             : 00:13:46.868
00:18:04.083                             : 00:18:04.083
00:21:28.287                             : 00:21:28.287
00:28:32.502                             : 00:28:32.502
00:39:14.811                             : 00:39:14.811
00:48:41.252                             : 00:48:41.252
00:54:03.198                             : 00:54:03.198
01:03:04.531                             : 01:03:04.531
01:09:48.267                             : 01:09:48.267
01:19:03.197                             : 01:19:03.197
01:29:05.674                             : 01:29:05.549
01:40:03.498                             : 01:40:03.497

Menu #2
ID                                       : 8
Codec ID                                 : text
Duration                                 : 1h 49mn
Language                                 : English
Encoded date                             : UTC 2018-06-09 09:16:26
Tagged date                              : UTC 2018-06-09 09:16:26
Bit rate mode                            : CBR
Menu For                                 : 2,1
00:00:00.000                             : 00:00:00.000
00:09:39.871                             : 00:09:39.871
00:13:46.868                             : 00:13:46.868
00:18:04.083                             : 00:18:04.083
00:21:28.287                             : 00:21:28.287
00:28:32.502                             : 00:28:32.502
00:39:14.811                             : 00:39:14.811
00:48:41.252                             : 00:48:41.252
00:54:03.198                             : 00:54:03.198
01:03:04.531                             : 01:03:04.531
01:09:48.267                             : 01:09:48.267
01:19:03.197                             : 01:19:03.197
01:29:05.674                             : 01:29:05.549
01:40:03.498                             : 01:40:03.497
x264 [info]: frame I:1032  Avg QP:13.71  size:231703
x264 [info]: frame P:39207 Avg QP:16.84  size: 73549
x264 [info]: frame B:117462 Avg QP:18.02  size: 29394
x264 [info]: consecutive B-frames:  2.8%  7.3% 14.1% 15.4% 16.8% 39.7%  2.9%  0.2%  0.3%  0.1%  0.1%  0.0%  0.0%  0.0%  0.0%  0.0%  0.1%
x264 [info]: mb I  I16..4: 11.3% 73.1% 15.6%
x264 [info]: mb P  I16..4:  2.4% 20.4%  1.3%  P16..4: 35.9% 18.9% 10.7%  0.5%  0.2%    skip: 9.7%
x264 [info]: mb B  I16..4:  0.2%  2.4%  0.1%  B16..8: 37.5% 11.8%  2.8%  direct: 9.0%  skip:36.1%  L0:42.7% L1:41.5% BI:15.8%
x264 [info]: 8x8 transform intra:84.8% inter:54.2%
x264 [info]: direct mvs  spatial:97.9% temporal:2.1%
x264 [info]: coded y,uvDC,uvAC intra: 89.7% 91.9% 78.3% inter: 28.5% 34.1% 17.7%
x264 [info]: i16 v,h,dc,p: 11%  9% 16% 64%
x264 [info]: i8 v,h,dc,ddl,ddr,vr,hd,vl,hu: 10%  9% 12%  9% 12% 11% 12% 11% 13%
x264 [info]: i4 v,h,dc,ddl,ddr,vr,hd,vl,hu: 10%  8%  4% 10% 16% 15% 14% 11% 13%
x264 [info]: i8c dc,h,v,p: 51% 18% 15% 16%
x264 [info]: Weighted P-Frames: Y:4.7% UV:2.9%
x264 [info]: ref P L0: 54.6%  9.8% 25.7%  9.3%  0.6%  0.0%
x264 [info]: ref B L0: 85.3% 12.2%  2.5%
x264 [info]: ref B L1: 95.3%  4.7%
x264 [info]: kb/s:7997.53

Релиз подготовлен для просмотра на Apple TV, iPad, iPhone, iPod Touch.
Для просмотра данного релиза на компьютере с ОС Windows рекомендуется использовать VLC media player

Трекер:  [ 09-Июн-2018 13:06 ]

  

Скачать .torrent

Размер .torrent файла 72 KB


Размер: 7.16 GB
Хэш (hash) релиза: 67fdb37d2101aa937e25f16abaf03d854845ace6

Еще никто не оставлял запись к записи скачать торрент [ATV3] Излом времени A Wrinkle in Time . Будь первым!

!Обратная связь