The Grey 2012 RC BRRip DivX AC3-TBS | Boo 2! A Madea Halloween (2017) Full Movie Online Madea and the gang encounter monsters, goblins and boogeymen at a haunted campground. Boo 2! A Madea Halloween Full Movie Online You can watch this Movie hd free Boo 2! A Madea Halloween full movie online, watch Boo 2! A Madea Halloween movie download, Boo 2 English movie online movierulz, Boo 2 online movie todaypk, Boo 2 hd movie download torrent, watch ... | Arts Martiaux

Скачать через торрент Zомбоящик Фильм бесплатно в хорошем качестве torrent

Скачивайте на UnionPeer.org фильмы через торрент без регистрации. Новинки кино в хорошем качестве через торрент. На UnionPeer.org можно скачать через торрент фильмы 2014 и 2015 годов. Самые новые фильмы.

Скачать торрент Zомбоящик бесплатно через .torrent фильм мультфильм сериал

Статистика раздачи
Размер:  2.3 GB   |    Зарегистрирован:  15 дней   |    .torrent скачан:  109 раз   |   
Раздают:  1  
   
загрузка...
 
Автор Сообщение

Galfimbul

avatar Galfimbul


Zомбоящик

Страна: Россия
Студия: Comedy Club Production
Жанр: комедия
Год выпуска: 2018
Продолжительность: 00:59:19

Перевод: Не требуется
Субтитры: нет
Оригинальная аудиодорожка: русский

Режиссёр: Константин Смирнов

В ролях: Гарик Харламов, Гарик Мартиросян, Тимур Батрутдинов, Александр Ревва, Павел Воля, Екатерина Варнава, Андрей Скороход, Роман Юнусов, Ольга Бузова, Анна Хилькевич
Описание: Во времена Шекспира весь мир был театром, в наши же дни его захватил зомбоящик. 30 звезд ТНТ. Все жанры: драма, комедия, боевик, триллер, научная фантастика, байопик, эротика и экспериментальное кино. От бессмысленного и беспощадного стеба не скроется никто: ни футболисты, ни геи, ни чиновники, ни священники, ни расисты, ни онанисты! Герои «Zомбоящика» интригуют, дразнят, издеваются и смеются вместе со зрителями, доказывая, что вся наша жизнь и есть «Zомбоящик».

Sample

Тип релиза: WEB-DL 1080p
Контейнер: MKV

Видео: MPEG4 AVC Video, H264, 1920x1080, 25 fps, 5154 kbps
Аудио: Russian (AC3, 6 ch, 384 kbps, 16 bits, 48.0 KHz) - оригинал
General
Unique ID : 208920968435508041190011683488670882863 (0x9D2CB70479974D2BB65A85D4C7CF1C2F)
Complete name : D:\Zомбоящик WEB-DL 1080p.mkv
Format : Matroska
Format version : Version 2
File size : 2.30 GiB
Duration : 59 min 19 s
Overall bit rate : 5 540 kb/s
Encoded date : UTC 2018-06-06 19:10:02
Writing application : mkvmerge v8.3.0 ('Over the Horizon') 64bit
Writing library : libebml v1.3.1 + libmatroska v1.4.2

Video
ID : 1
Format : AVC
Format/Info : Advanced Video Codec
Format profile : [email protected]
Format settings : CABAC / 4 Ref Frames
Format settings, CABAC : Yes
Format settings, ReFrames : 4 frames
Codec ID : V_MPEG4/ISO/AVC
Duration : 59 min 19 s
Bit rate : 5 154 kb/s
Width : 1 920 pixels
Height : 1 080 pixels
Display aspect ratio : 16:9
Frame rate mode : Constant
Frame rate : 25.000 FPS
Color space : YUV
Chroma subsampling : 4:2:0
Bit depth : 8 bits
Scan type : Progressive
Bits/(Pixel*Frame) : 0.099
Stream size : 2.14 GiB (93%)
Language : English
Default : Yes
Forced : No
Color range : Limited
Color primaries : BT.709
Transfer characteristics : BT.709
Matrix coefficients : BT.709

Audio
ID : 2
Format : AC-3
Format/Info : Audio Coding 3
Codec ID : A_AC3
Duration : 59 min 19 s
Bit rate mode : Constant
Bit rate : 384 kb/s
Channel(s) : 6 channels
Channel positions : Front: L C R, Side: L R, LFE
Sampling rate : 48.0 kHz
Frame rate : 31.250 FPS (1536 SPF)
Bit depth : 16 bits
Compression mode : Lossy
Stream size : 163 MiB (7%)
Language : Russian
Service kind : Complete Main
Default : Yes
Forced : No


Трекер:  [ 08-Июн-2018 14:30 ]

  

Скачать .torrent

Размер .torrent файла 12 KB


Размер: 2.3 GB
Хэш (hash) релиза: 55642a41f4456a4e2d2931fc0b9e587fbe40b238
Подписка на обновления:

Торренты, похожие на Zомбоящик скачать торрент

Форум Название Автор Размер S L Добавлен
Российские фильмы до 2016 ·· Zомбоящик (Константин Смирнов) [2018, комедия, WEB-DLRip] Galfimbul 777641984742 MB 0 0 1528399448

22:24

7-Июн-18

Российские фильмы до 2016 ·· Zомбоящик (Константин Смирнов) [2018, комедия, WEB-DLRip] Galfimbul 11705446401.09 GB 0 0 1528358049

10:54

7-Июн-18

Российские фильмы до 2016 ·· Zомбоящик (Константин Смирнов) [2018, комедия, WEB-DLRip-AVC] Galfimbul 782706326746 MB 0 0 1528331059

03:24

7-Июн-18

Российские фильмы 2016-2018 (Новинки русского кино) ·· Zомбоящик (Константин Смирнов) [2018 г., Комедия, WEB-DL 720p] Galfimbul 25943633342.42 GB 0 0 1527837318

10:15

1-Июн-18

Российские фильмы 2016-2018 (Новинки русского кино) ·· Zомбоящик (Константин Смирнов) [2018 г., Комедия, WEB-DLRip] Galfimbul 14679388161.37 GB 0 0 1527837317

10:15

1-Июн-18

Российские фильмы 2016-2018 (Новинки русского кино) ·· Zомбоящик (Константин Смирнов) [2018 г., Комедия, TS 720p] | Чистый звук Galfimbul 17479341231.63 GB 0 0 1517135315

13:28

28-Янв-18

Российские фильмы 2016-2018 (Новинки русского кино) ·· Zомбоящик (Константин Смирнов) [2018 г., Комедия, TS] | Чистый звук Galfimbul 733855744700 MB 0 0 1517135313

13:28

28-Янв-18

Еще никто не оставлял запись к записи скачать торрент Zомбоящик . Будь первым!

!Обратная связь