Bruce Greenwood | Season 8 Episode 21 The Communication Deterioration | Damon Wayans Jr.

Скачать через торрент Дом The House бесплатно русская версия torrent активатор

Статистика раздачи
Размер:  3.07 GB   |    Зарегистрирован:  17 дней   |    .torrent скачан:  20 раз   |   
Раздают:  1  
   
загрузка...
 
Автор Сообщение

Galfimbul

avatar Galfimbul


Дом / The House
«If you can't beat the house, be... The House»

5.526 / 10 5.60 / 10
Год выпуска: 2017
Страна: США
Жанр: Комедия
Продолжительность: 01:28:09

Перевод: Дублированный (iTunes)
Оригинальная аудиодорожка: Есть
Cубтитры: Английские
Режиссёр: Эндрю Дж. Коэн
Сценарий: Брендан О’Брайэн, Эндрю Дж. Коэн
Продюсер: Брюс Берман, Ричард Бренер, Эндрю Дж. Коэн
Оператор: Джас Шелтон
Композитор: Эндрю Фелтенштейн, Джон Нау
Художник: Клэйтон Хартли, Эллиотт Глик, Кристофер Ороса
Монтаж: Ивэн Хенке, Майкл Л. Сейл
В ролях: Уилл Феррелл, Эми Полер, Джейсон Манцукас, Райан Симпкинс, Ник Кролл, Эллисон Толман, Роб Хюбель, Кристина Оффли, Джесси Эннис, Рори Сковел

Бюджет: $40 000 000
Сборы в США: $25 584 504
Сборы в мире: + $8 600 000 = $34 184 504

Мировая премьера: 26 июня 2017

Цифровой релиз: 10 мая 2018, «Warner Bros.»

Описание: Скотт и Кейт души не чают в своей дочери Алекс. Особенно они радовались, когда девушку приняли в университет её мечты. Но городской совет на деньги, обещанные родителям на обучение Алекс, решил построить общественный бассейн. Приняв решение быть хорошими родителями любой ценой, парочка поддается на уговоры соседа-игромана устроить в его доме нелегальное казино с рулеткой и кордебалетом.
Качество исходника: BDRemux (Кинозал)
Качество: BDRip
Тип: HD (720p)
Контейнер: M4V
Видео: H.264, 1280x536, 2.40:1, 3 500 Kbps, 23.976 (24000/1001) fps

Аудио 1: Русский/Дублированный (iTunes), AAC / 2.0 / 160 Kbps / 48.0 KHz
Аудио 2: Английский/Оригинальная дорожка , AAC / 2.0 / 160 Kbps / 48.0 KHz
Аудио 3: Украинский/Дублированный (iTunes), AAC / 2.0 / 160 Kbps / 48.0 KHz
Аудио 4: Русский/Дублированный (iTunes), AC-3 / 5.1 / 384 Kbps / 48.0 KHz
Аудио 5: Английский/Оригинальная дорожка , AC-3 / 5.1 / 640 Kbps / 48.0 KHz

Субтитры: Английские полные
Sort Name: House
XID: Apple:vendor_id:2017-916326
contentID: 1249200924
Copyright: © 2017 Warner Bros. Entertainment Inc. All Rights Reserved.
Screenwriters: Брендан О’Брайэн, Эндрю Дж. Коэн
Producers: Брюс Берман, Ричард Бренер, Эндрю Дж. Коэн
Director: Эндрю Дж. Коэн
Cast: Уилл Феррелл, Эми Полер, Джейсон Манцукас, Райан Симпкинс, Ник Кролл, Эллисон Толман, Роб Хюбель, Кристина Оффли, Джесси Эннис, Рори Сковел
Studio: New Line
Rating Annotation: Rated R for language throughout, sexual references, drug use, some violence and brief nudity.
Rating: 5
Long Description: Скотт и Кейт души не чают в своей дочери Алекс. Особенно они радовались, когда девушку приняли в университет её мечты. Но городской совет на деньги, обещанные родителям на обучение Алекс, решил построить общественный бассейн. Приняв решение быть хорошими родителями любой ценой, парочка поддается на уговоры соседа-игромана устроить в его доме нелегальное казино с рулеткой и кордебалетом.
Description: Отец семейства уговаривает своих друзей организовать нелегальное казино в подвале собственного дома после того, как они с женой растранжирили деньги, отложенные на обучение дочери в колледже.
Release Date: 2017-06-26T08:00:00Z
Genre: Comedy
Artist: Andrew Jay Cohen
Name: The House (2017)
General
Complete name                            : /Users/imac/HandBrake/The House (720p HD).m4v
Format                                   : MPEG-4
Codec ID                                 : M4V  (M4V /M4A /mp42/isom)
File size                                : 3.07 GiB
Duration                                 : 1h 28mn
Overall bit rate mode                    : Variable
Overall bit rate                         : 4 991 Kbps
Movie name                               : The House (2017)
Performer                                : Andrew Jay Cohen
Director                                 : Эндрю Дж. Коэн
Actor                                    : Уилл Феррелл / Эми Полер / Джейсон Манцукас / Райан Симпкинс / Ник Кролл / Эллисон Толман / Роб Хюбель / Кристина Оффли / Джесси Эннис / Рори Сковел
Screenplay by                            : Брендан О’Брайэн / Эндрю Дж. Коэн
Producer                                 : Брюс Берман / Ричард Бренер / Эндрю Дж. Коэн
Production studio                        : New Line
Genre                                    : Comedy
ContentType                              : Short Film
Description                              : Отец семейства уговаривает своих друзей организовать нелегальное казино в подвале собственного дома после того, как они с женой растранжирили деньги, отложенные на обучение дочери в колледже.
Recorded date                            : UTC 2017-06-26 08:00:00
Encoded date                             : UTC 2018-06-08 10:11:08
Tagged date                              : UTC 2018-06-08 10:18:53
Copyright                                : © 2017 Warner Bros. Entertainment Inc. All Rights Reserved.
Cover                                    : Yes
Rating                                   : None
Title/Sort                               : House
LongDescription                          : Скотт и Кейт души не чают в своей дочери Алекс. Особенно они радовались, когда девушку приняли в университет её мечты. Но городской совет на деньги, обещанные родителям на обучение Алекс, решил построить общественный бассейн. Приняв решение быть хорошими родителями любой ценой, парочка поддается на уговоры соседа-игромана устроить в его доме нелегальное казино с рулеткой и кордебалетом.
HDVideo                                  : Yes
AppleStoreCatalogID                      : 1249200924
Vendor                                   : Apple:vendor_id:2017-916326
ContentRating                            : mpaa|R|400|Rated R for language throughout, sexual references, drug use, some violence and brief nudity.

Video #1
ID                                       : 1
Format                                   : AVC
Format/Info                              : Advanced Video Codec
Format profile                           : [email protected]
Format settings                          : 3 Ref Frames
Format settings, CABAC                   : No
Format settings, ReFrames                : 3 frames
Codec ID                                 : avc1
Codec ID/Info                            : Advanced Video Coding
Duration                                 : 1h 28mn
Source duration                          : 1h 28mn
Bit rate                                 : 3 500 Kbps
Width                                    : 1 280 pixels
Height                                   : 536 pixels
Display aspect ratio                     : 2.40:1
Frame rate mode                          : Variable
Frame rate                               : 23.976 (24000/1001) fps
Minimum frame rate                       : 23.974 fps
Maximum frame rate                       : 23.981 fps
Color space                              : YUV
Chroma subsampling                       : 4:2:0
Bit depth                                : 8 bits
Scan type                                : Progressive
Bits/(Pixel*Frame)                       : 0.213
Stream size                              : 2.15 GiB (70%)
Source stream size                       : 2.15 GiB (70%)
Title                                    : Main Program
Writing library                          : x264 core 155 r2893 b00bcaf
Encoding settings                        : cabac=0 / ref=3 / deblock=1:-3:-3 / analyse=0x3:0x113 / me=umh / subme=9 / psy=1 / psy_rd=1.00:0.15 / mixed_ref=1 / me_range=32 / chroma_me=1 / trellis=0 / 8x8dct=1 / cqm=0 / deadzone=21,11 / fast_pskip=0 / chroma_qp_offset=-2 / threads=17 / lookahead_threads=1 / sliced_threads=0 / nr=0 / decimate=0 / interlaced=0 / bluray_compat=0 / constrained_intra=0 / bframes=3 / b_pyramid=0 / b_adapt=2 / b_bias=0 / direct=1 / weightb=0 / open_gop=0 / weightp=0 / keyint=240 / keyint_min=24 / scenecut=40 / intra_refresh=0 / rc_lookahead=40 / rc=2pass / mbtree=1 / bitrate=3500 / ratetol=1.0 / qcomp=0.65 / qpmin=0 / qpmax=69 / qpstep=4 / cplxblur=20.0 / qblur=0.5 / vbv_maxrate=9500 / vbv_bufsize=9500 / nal_hrd=none / filler=0 / ip_ratio=1.40 / aq=1:1.10
Language                                 : English
Encoded date                             : UTC 2018-06-08 10:11:08
Tagged date                              : UTC 2018-06-08 10:11:14
Color range                              : Limited
Color primaries                          : BT.709
Transfer characteristics                 : BT.709
Matrix coefficients                      : BT.709
Menus                                    : 8,9

Video #2
ID                                       : 9
Format                                   : JPEG
Codec ID                                 : jpeg
Duration                                 : 1h 28mn
Bit rate mode                            : Variable
Bit rate                                 : 292 bps
Width                                    : 640 pixels
Height                                   : 268 pixels
Display aspect ratio                     : 2.40:1
Frame rate mode                          : Constant
Frame rate                               : 0.001 fps
Color space                              : YUV
Chroma subsampling                       : 4:2:0
Bit depth                                : 8 bits
Compression mode                         : Lossy
Bits/(Pixel*Frame)                       : 1.702
Stream size                              : 321 KiB (0%)
Title                                    : Chapter Images
Language                                 : English
Default                                  : No
Encoded date                             : UTC 2018-06-08 10:12:09
Tagged date                              : UTC 2018-06-08 10:12:09
Menu For                                 : 1
ColorSpace_ICC                           : RGB

Audio #1
ID                                       : 2
Format                                   : AAC
Format/Info                              : Advanced Audio Codec
Format profile                           : LC
Codec ID                                 : mp4a-40-2
Duration                                 : 1h 28mn
Source duration                          : 1h 28mn
Bit rate mode                            : Variable
Bit rate                                 : 151 Kbps
Maximum bit rate                         : 236 Kbps
Channel(s)                               : 2 channels
Channel positions                        : Front: L R
Sampling rate                            : 48.0 KHz
Frame rate                               : 46.875 fps (1024 SPF)
Compression mode                         : Lossy
Stream size                              : 95.4 MiB (3%)
Source stream size                       : 95.4 MiB (3%)
Title                                    : Russian Stereo
Language                                 : Russian
Default                                  : Yes
Alternate group                          : 1
Encoded date                             : UTC 2018-06-08 10:11:08
Tagged date                              : UTC 2018-06-08 10:12:06
Fallback From                            : 5

Audio #2
ID                                       : 3
Format                                   : AAC
Format/Info                              : Advanced Audio Codec
Format profile                           : LC
Codec ID                                 : mp4a-40-2
Duration                                 : 1h 28mn
Source duration                          : 1h 28mn
Bit rate mode                            : Variable
Bit rate                                 : 154 Kbps
Maximum bit rate                         : 257 Kbps
Channel(s)                               : 2 channels
Channel positions                        : Front: L R
Sampling rate                            : 48.0 KHz
Frame rate                               : 46.875 fps (1024 SPF)
Compression mode                         : Lossy
Stream size                              : 97.2 MiB (3%)
Source stream size                       : 97.2 MiB (3%)
Title                                    : English Stereo
Language                                 : English
Default                                  : No
Alternate group                          : 1
Encoded date                             : UTC 2018-06-08 10:11:08
Tagged date                              : UTC 2018-06-08 10:12:06
Fallback From                            : 6

Audio #3
ID                                       : 4
Format                                   : AAC
Format/Info                              : Advanced Audio Codec
Format profile                           : LC
Codec ID                                 : mp4a-40-2
Duration                                 : 1h 28mn
Source duration                          : 1h 28mn
Bit rate mode                            : Variable
Bit rate                                 : 155 Kbps
Maximum bit rate                         : 259 Kbps
Channel(s)                               : 2 channels
Channel positions                        : Front: L R
Sampling rate                            : 48.0 KHz
Frame rate                               : 46.875 fps (1024 SPF)
Compression mode                         : Lossy
Stream size                              : 97.6 MiB (3%)
Source stream size                       : 97.6 MiB (3%)
Title                                    : Ukrainian Stereo
Language                                 : Ukrainian
Default                                  : No
Alternate group                          : 1
Encoded date                             : UTC 2018-06-08 10:11:08
Tagged date                              : UTC 2018-06-08 10:11:15

Audio #4
ID                                       : 5
Format                                   : AC-3
Format/Info                              : Audio Coding 3
Codec ID                                 : ac-3
Duration                                 : 1h 28mn
Bit rate mode                            : Constant
Bit rate                                 : 384 Kbps
Channel(s)                               : 6 channels
Channel positions                        : Front: L C R, Side: L R, LFE
Sampling rate                            : 48.0 KHz
Frame rate                               : 31.250 fps (1536 SPF)
Bit depth                                : 16 bits
Compression mode                         : Lossy
Stream size                              : 242 MiB (8%)
Title                                    : Russian DD 5.1
Language                                 : Russian
Service kind                             : Complete Main
Default                                  : Inherited From: 2
Alternate group                          : 1
Encoded date                             : UTC 2018-06-08 10:11:08
Tagged date                              : UTC 2018-06-08 10:12:06
Fallback To                              : 2

Audio #5
ID                                       : 6
Format                                   : AC-3
Format/Info                              : Audio Coding 3
Codec ID                                 : ac-3
Duration                                 : 1h 28mn
Bit rate mode                            : Constant
Bit rate                                 : 640 Kbps
Channel(s)                               : 6 channels
Channel positions                        : Front: L C R, Side: L R, LFE
Sampling rate                            : 48.0 KHz
Frame rate                               : 31.250 fps (1536 SPF)
Bit depth                                : 16 bits
Compression mode                         : Lossy
Stream size                              : 404 MiB (13%)
Title                                    : English DD 5.1
Language                                 : English
Service kind                             : Complete Main
Default                                  : No
Alternate group                          : 1
Encoded date                             : UTC 2018-06-08 10:11:08
Tagged date                              : UTC 2018-06-08 10:12:06
Fallback To                              : 3

Text
ID                                       : 7
Format                                   : Timed Text
Muxing mode                              : sbtl
Codec ID                                 : tx3g
Duration                                 : 1h 28mn
Bit rate mode                            : Variable
Bit rate                                 : 104 bps
Stream size                              : 67.4 KiB (0%)
Title                                    : English full
Language                                 : English
Default                                  : Yes
Forced                                   : No
Alternate group                          : 2
Encoded date                             : UTC 2018-06-08 10:11:08
Tagged date                              : UTC 2018-06-08 10:12:03

Menu #1
00:00:00.000                             : Chapter 1
00:10:59.159                             : Chapter 2
00:22:00.945                             : Chapter 3
00:33:55.784                             : Chapter 4
00:43:26.646                             : Chapter 5
00:53:02.346                             : Chapter 6
01:02:37.921                             : Chapter 7
01:11:05.762                             : Chapter 8
01:20:32.328                             : Chapter 9

Menu #2
ID                                       : 8
Codec ID                                 : text
Duration                                 : 1h 28mn
Language                                 : English
Encoded date                             : UTC 2018-06-08 10:12:06
Tagged date                              : UTC 2018-06-08 10:12:06
Bit rate mode                            : CBR
Menu For                                 : 1
00:00:00.000                             : Chapter 1
00:10:59.159                             : Chapter 2
00:22:00.945                             : Chapter 3
00:33:55.784                             : Chapter 4
00:43:26.646                             : Chapter 5
00:53:02.346                             : Chapter 6
01:02:37.921                             : Chapter 7
01:11:05.762                             : Chapter 8
01:20:32.328                             : Chapter 9
x264 [info]: frame I:1776  Avg QP:15.60  size:117875
x264 [info]: frame P:46372 Avg QP:18.29  size: 33295
x264 [info]: frame B:78677 Avg QP:20.17  size:  7085
x264 [info]: consecutive B-frames:  4.3% 26.7% 36.7% 32.3%
x264 [info]: mb I  I16..4:  5.7% 59.2% 35.2%
x264 [info]: mb P  I16..4:  1.0%  4.3%  2.2%  P16..4: 47.0% 27.4% 12.2%  0.0%  0.0%    skip: 5.9%
x264 [info]: mb B  I16..4:  0.1%  0.4%  0.2%  B16..8: 45.9%  9.8%  1.6%  direct: 3.1%  skip:38.9%  L0:39.4% L1:52.2% BI: 8.3%
x264 [info]: 8x8 transform intra:57.8% inter:46.4%
x264 [info]: coded y,uvDC,uvAC intra: 87.4% 87.2% 69.4% inter: 25.1% 21.2% 12.2%
x264 [info]: i16 v,h,dc,p: 40% 13%  6% 40%
x264 [info]: i8 v,h,dc,ddl,ddr,vr,hd,vl,hu: 14%  8%  5% 10% 14% 14% 13% 11% 10%
x264 [info]: i4 v,h,dc,ddl,ddr,vr,hd,vl,hu: 13%  8%  3% 11% 16% 16% 13% 11%  9%
x264 [info]: i8c dc,h,v,p: 48% 17% 22% 13%
x264 [info]: ref P L0: 73.3% 15.9% 10.8%
x264 [info]: ref B L0: 80.2% 19.8%
x264 [info]: kb/s:3494.67

Релиз подготовлен для просмотра на Apple TV, iPad, iPhone, iPod Touch.
Для просмотра данного релиза на компьютере с ОС Windows рекомендуется использовать VLC media player

Трекер:  [ 08-Июн-2018 13:36 ]

  

Скачать .torrent

Размер .torrent файла 31 KB


Размер: 3.07 GB
Хэш (hash) релиза: edccb92757641517149805457d7dcd9291e4007b

Торренты, похожие на Дом The House скачать торрент

Форум Название Автор Размер S L Добавлен
Видео (iPhone/iPod Touch/iPad) ·%· [iPad] Дом / The House (Эндрю Дж. Коэн / Andrew Jay Cohen ) [2017, США, Комедия, BDRip, SD (576p)] DUB + Original + sub (eng) Galfimbul 17087758021.59 GB 0 0 1529402780

13:06

19-Июн-18

Видео (iPhone/iPod Touch/iPad) ·· [ATV3] Дом / The House (Эндрю Дж. Коэн / Andrew Jay Cohen ) [2017, США, Комедия, BDRip, HD (1080p)] DUB + Original + sub (eng) Galfimbul 62702063875.84 GB 0 0 1528452375

13:06

8-Июн-18

Видео (Фильмы/Клипы) ·· [MULT] Волшебное рождество у Микки: Запертые снегом в мышином доме / Mickey's Magical Christmas: Snowed in at the House of Mouse (Тони Крэйг / Tony Craig) [2001, мультфильм, WEB-DLRip] [MP4, 800x] Dub, VO Живов Galfimbul 538006309513 MB 0 0 1434630946

15:35

18-Июн-15

Видео (Фильмы/Клипы) ·· [VIDEO] Дом в конце улицы / House at the End of the Street (Марк Тондерай / Mark Tonderai) [2012, триллер, ужасы, BDRip] [MP4, 1280x] [Расширенная версия / Unrated] Galfimbul 19537555071.82 GB 0 0 1486458684

12:11

7-Фев-17

Видео (Фильмы/Клипы) ·· [VIDEO] Последний дом на Семетри Лэйн / The Last House on Cemetery Lane (Эндрю Джонс / Andrew Jones) [2015, Великобритания, ужасы, HDRip][MP4, 480x] DVO Galfimbul 391568219373 MB 0 0 1434464298

17:18

16-Июн-15

Еще никто не оставлял запись к записи скачать торрент Дом The House . Будь первым!

!Обратная связь