Ben Mendelsohn | Regarder un film | Surgeon Bong Dal-hee

Скачать через торрент [ATV3] Дом The House бесплатно русская версия torrent активатор

Статистика раздачи
Размер:  5.84 GB   |    Зарегистрирован:  17 дней   |    .torrent скачан:  18 раз   |   
Раздают:  1  
   
загрузка...
 
Автор Сообщение

Galfimbul

avatar Galfimbul


Дом / The House
«If you can't beat the house, be... The House»

5.526 / 10 5.60 / 10
Год выпуска: 2017
Страна: США
Жанр: Комедия
Продолжительность: 01:28:09

Перевод: Дублированный (iTunes)
Оригинальная аудиодорожка: Есть
Cубтитры: Английские
Режиссёр: Эндрю Дж. Коэн
Сценарий: Брендан О’Брайэн, Эндрю Дж. Коэн
Продюсер: Брюс Берман, Ричард Бренер, Эндрю Дж. Коэн
Оператор: Джас Шелтон
Композитор: Эндрю Фелтенштейн, Джон Нау
Художник: Клэйтон Хартли, Эллиотт Глик, Кристофер Ороса
Монтаж: Ивэн Хенке, Майкл Л. Сейл
В ролях: Уилл Феррелл, Эми Полер, Джейсон Манцукас, Райан Симпкинс, Ник Кролл, Эллисон Толман, Роб Хюбель, Кристина Оффли, Джесси Эннис, Рори Сковел

Бюджет: $40 000 000
Сборы в США: $25 584 504
Сборы в мире: + $8 600 000 = $34 184 504

Мировая премьера: 26 июня 2017

Цифровой релиз: 10 мая 2018, «Warner Bros.»

Описание: Скотт и Кейт души не чают в своей дочери Алекс. Особенно они радовались, когда девушку приняли в университет её мечты. Но городской совет на деньги, обещанные родителям на обучение Алекс, решил построить общественный бассейн. Приняв решение быть хорошими родителями любой ценой, парочка поддается на уговоры соседа-игромана устроить в его доме нелегальное казино с рулеткой и кордебалетом.
Качество исходника: BDRemux (Кинозал)
Качество: BDRip
Тип: HD (1080p)
Контейнер: M4V
Видео: H.264, 1920x800, 2.40:1, 8 000 Kbps, 23.976 (24000/1001) fps

Аудио 1: Русский/Дублированный (iTunes), AAC / 2.0 / 160 Kbps / 48.0 KHz
Аудио 2: Английский/Оригинальная дорожка , AAC / 2.0 / 160 Kbps / 48.0 KHz
Аудио 3: Украинский/Дублированный (iTunes), AAC / 2.0 / 160 Kbps / 48.0 KHz
Аудио 4: Русский/Дублированный (iTunes), AC-3 / 5.1 / 384 Kbps / 48.0 KHz
Аудио 5: Английский/Оригинальная дорожка , AC-3 / 5.1 / 640 Kbps / 48.0 KHz

Субтитры: Английские полные
Sort Name: House
XID: Apple:vendor_id:2017-916326
contentID: 1249200924
Copyright: © 2017 Warner Bros. Entertainment Inc. All Rights Reserved.
Screenwriters: Брендан О’Брайэн, Эндрю Дж. Коэн
Producers: Брюс Берман, Ричард Бренер, Эндрю Дж. Коэн
Director: Эндрю Дж. Коэн
Cast: Уилл Феррелл, Эми Полер, Джейсон Манцукас, Райан Симпкинс, Ник Кролл, Эллисон Толман, Роб Хюбель, Кристина Оффли, Джесси Эннис, Рори Сковел
Studio: New Line
Rating Annotation: Rated R for language throughout, sexual references, drug use, some violence and brief nudity.
Rating: 5
Long Description: Скотт и Кейт души не чают в своей дочери Алекс. Особенно они радовались, когда девушку приняли в университет её мечты. Но городской совет на деньги, обещанные родителям на обучение Алекс, решил построить общественный бассейн. Приняв решение быть хорошими родителями любой ценой, парочка поддается на уговоры соседа-игромана устроить в его доме нелегальное казино с рулеткой и кордебалетом.
Description: Отец семейства уговаривает своих друзей организовать нелегальное казино в подвале собственного дома после того, как они с женой растранжирили деньги, отложенные на обучение дочери в колледже.
Release Date: 2017-06-26T08:00:00Z
Genre: Comedy
Artist: Andrew Jay Cohen
Name: The House (2017)
General
Complete name                            : /Users/imac/HandBrake/The House (1080p HD).m4v
Format                                   : MPEG-4
Codec ID                                 : M4V  (M4V /M4A /mp42/isom)
File size                                : 5.84 GiB
Duration                                 : 1h 28mn
Overall bit rate mode                    : Variable
Overall bit rate                         : 9 483 Kbps
Movie name                               : The House (2017)
Performer                                : Andrew Jay Cohen
Director                                 : Эндрю Дж. Коэн
Actor                                    : Уилл Феррелл / Эми Полер / Джейсон Манцукас / Райан Симпкинс / Ник Кролл / Эллисон Толман / Роб Хюбель / Кристина Оффли / Джесси Эннис / Рори Сковел
Screenplay by                            : Брендан О’Брайэн / Эндрю Дж. Коэн
Producer                                 : Брюс Берман / Ричард Бренер / Эндрю Дж. Коэн
Production studio                        : New Line
Genre                                    : Comedy
ContentType                              : Short Film
Description                              : Отец семейства уговаривает своих друзей организовать нелегальное казино в подвале собственного дома после того, как они с женой растранжирили деньги, отложенные на обучение дочери в колледже.
Recorded date                            : UTC 2017-06-26 08:00:00
Encoded date                             : UTC 2018-06-08 09:11:43
Tagged date                              : UTC 2018-06-08 09:31:28
Copyright                                : © 2017 Warner Bros. Entertainment Inc. All Rights Reserved.
Cover                                    : Yes
Rating                                   : None
Title/Sort                               : House
LongDescription                          : Скотт и Кейт души не чают в своей дочери Алекс. Особенно они радовались, когда девушку приняли в университет её мечты. Но городской совет на деньги, обещанные родителям на обучение Алекс, решил построить общественный бассейн. Приняв решение быть хорошими родителями любой ценой, парочка поддается на уговоры соседа-игромана устроить в его доме нелегальное казино с рулеткой и кордебалетом.
AppleStoreCatalogID                      : 1249200924
Vendor                                   : Apple:vendor_id:2017-916326
ContentRating                            : mpaa|R|400|Rated R for language throughout, sexual references, drug use, some violence and brief nudity.

Video #1
ID                                       : 1
Format                                   : AVC
Format/Info                              : Advanced Video Codec
Format profile                           : [email protected]
Format settings                          : CABAC / 4 Ref Frames
Format settings, CABAC                   : Yes
Format settings, ReFrames                : 4 frames
Codec ID                                 : avc1
Codec ID/Info                            : Advanced Video Coding
Duration                                 : 1h 28mn
Source duration                          : 1h 28mn
Bit rate                                 : 8 000 Kbps
Width                                    : 1 920 pixels
Height                                   : 800 pixels
Display aspect ratio                     : 2.40:1
Frame rate mode                          : Variable
Frame rate                               : 23.976 (24000/1001) fps
Minimum frame rate                       : 23.974 fps
Maximum frame rate                       : 23.981 fps
Color space                              : YUV
Chroma subsampling                       : 4:2:0
Bit depth                                : 8 bits
Scan type                                : Progressive
Bits/(Pixel*Frame)                       : 0.217
Stream size                              : 4.92 GiB (84%)
Source stream size                       : 4.92 GiB (84%)
Title                                    : Main Program
Writing library                          : x264 core 155 r2893 b00bcaf
Encoding settings                        : cabac=1 / ref=4 / deblock=1:-2:-2 / analyse=0x3:0x133 / me=umh / subme=10 / psy=1 / psy_rd=1.00:0.15 / mixed_ref=1 / me_range=32 / chroma_me=1 / trellis=2 / 8x8dct=1 / cqm=0 / deadzone=21,11 / fast_pskip=1 / chroma_qp_offset=-3 / threads=25 / lookahead_threads=6 / sliced_threads=0 / nr=0 / decimate=0 / interlaced=0 / bluray_compat=0 / constrained_intra=0 / bframes=16 / b_pyramid=2 / b_adapt=2 / b_bias=0 / direct=3 / weightb=1 / open_gop=0 / weightp=2 / keyint=240 / keyint_min=24 / scenecut=40 / intra_refresh=0 / rc_lookahead=40 / rc=2pass / mbtree=1 / bitrate=8000 / ratetol=1.0 / qcomp=0.70 / qpmin=0 / qpmax=69 / qpstep=4 / cplxblur=20.0 / qblur=0.5 / ip_ratio=1.40 / aq=1:1.00
Language                                 : English
Encoded date                             : UTC 2018-06-08 09:11:43
Tagged date                              : UTC 2018-06-08 09:11:59
Color range                              : Limited
Color primaries                          : BT.709
Transfer characteristics                 : BT.709
Matrix coefficients                      : BT.709
Menus                                    : 9,10

Video #2
ID                                       : 10
Format                                   : JPEG
Codec ID                                 : jpeg
Duration                                 : 1h 28mn
Bit rate mode                            : Variable
Bit rate                                 : 287 bps
Width                                    : 640 pixels
Height                                   : 266 pixels
Display aspect ratio                     : 2.40:1
Frame rate mode                          : Constant
Frame rate                               : 0.001 fps
Color space                              : YUV
Chroma subsampling                       : 4:2:0
Bit depth                                : 8 bits
Compression mode                         : Lossy
Bits/(Pixel*Frame)                       : 1.686
Stream size                              : 316 KiB (0%)
Title                                    : Chapter Images
Language                                 : English
Default                                  : No
Encoded date                             : UTC 2018-06-08 09:12:08
Tagged date                              : UTC 2018-06-08 09:12:08
Menu For                                 : 1
ColorSpace_ICC                           : RGB

Audio #1
ID                                       : 2
Format                                   : AAC
Format/Info                              : Advanced Audio Codec
Format profile                           : LC
Codec ID                                 : mp4a-40-2
Duration                                 : 1h 28mn
Source duration                          : 1h 28mn
Bit rate mode                            : Variable
Bit rate                                 : 151 Kbps
Maximum bit rate                         : 236 Kbps
Channel(s)                               : 2 channels
Channel positions                        : Front: L R
Sampling rate                            : 48.0 KHz
Frame rate                               : 46.875 fps (1024 SPF)
Compression mode                         : Lossy
Stream size                              : 95.4 MiB (2%)
Source stream size                       : 95.4 MiB (2%)
Title                                    : Russian Stereo
Language                                 : Russian
Default                                  : Yes
Alternate group                          : 1
Encoded date                             : UTC 2018-06-08 09:11:43
Tagged date                              : UTC 2018-06-08 09:12:04
Fallback From                            : 5
Menus                                    : 9

Audio #2
ID                                       : 3
Format                                   : AAC
Format/Info                              : Advanced Audio Codec
Format profile                           : LC
Codec ID                                 : mp4a-40-2
Duration                                 : 1h 28mn
Source duration                          : 1h 28mn
Bit rate mode                            : Variable
Bit rate                                 : 154 Kbps
Maximum bit rate                         : 257 Kbps
Channel(s)                               : 2 channels
Channel positions                        : Front: L R
Sampling rate                            : 48.0 KHz
Frame rate                               : 46.875 fps (1024 SPF)
Compression mode                         : Lossy
Stream size                              : 97.2 MiB (2%)
Source stream size                       : 97.2 MiB (2%)
Title                                    : English Stereo
Language                                 : English
Default                                  : No
Alternate group                          : 1
Encoded date                             : UTC 2018-06-08 09:11:43
Tagged date                              : UTC 2018-06-08 09:12:04
Fallback From                            : 6

Audio #3
ID                                       : 4
Format                                   : AAC
Format/Info                              : Advanced Audio Codec
Format profile                           : LC
Codec ID                                 : mp4a-40-2
Duration                                 : 1h 28mn
Source duration                          : 1h 28mn
Bit rate mode                            : Variable
Bit rate                                 : 151 Kbps
Maximum bit rate                         : 248 Kbps
Channel(s)                               : 2 channels
Channel positions                        : Front: L R
Sampling rate                            : 48.0 KHz
Frame rate                               : 46.875 fps (1024 SPF)
Compression mode                         : Lossy
Stream size                              : 95.4 MiB (2%)
Source stream size                       : 95.4 MiB (2%)
Title                                    : Ukrainian Stereo
Language                                 : Ukrainian
Default                                  : No
Alternate group                          : 1
Encoded date                             : UTC 2018-06-08 09:11:43
Tagged date                              : UTC 2018-06-08 09:12:04

Audio #4
ID                                       : 5
Format                                   : AC-3
Format/Info                              : Audio Coding 3
Codec ID                                 : ac-3
Duration                                 : 1h 28mn
Bit rate mode                            : Constant
Bit rate                                 : 384 Kbps
Channel(s)                               : 6 channels
Channel positions                        : Front: L C R, Side: L R, LFE
Sampling rate                            : 48.0 KHz
Frame rate                               : 31.250 fps (1536 SPF)
Bit depth                                : 16 bits
Compression mode                         : Lossy
Stream size                              : 242 MiB (4%)
Title                                    : Russian DD 5.1
Language                                 : Russian
Service kind                             : Complete Main
Default                                  : Inherited From: 2
Alternate group                          : 1
Encoded date                             : UTC 2018-06-08 09:11:43
Tagged date                              : UTC 2018-06-08 09:11:55
Fallback To                              : 2

Audio #5
ID                                       : 6
Format                                   : AC-3
Format/Info                              : Audio Coding 3
Codec ID                                 : ac-3
Duration                                 : 1h 28mn
Bit rate mode                            : Constant
Bit rate                                 : 640 Kbps
Channel(s)                               : 6 channels
Channel positions                        : Front: L C R, Side: L R, LFE
Sampling rate                            : 48.0 KHz
Frame rate                               : 31.250 fps (1536 SPF)
Bit depth                                : 16 bits
Compression mode                         : Lossy
Stream size                              : 404 MiB (7%)
Title                                    : English DD 5.1
Language                                 : English
Service kind                             : Complete Main
Default                                  : No
Alternate group                          : 1
Encoded date                             : UTC 2018-06-08 09:11:43
Tagged date                              : UTC 2018-06-08 09:11:55
Fallback To                              : 3

Text
ID                                       : 8
Format                                   : Timed Text
Muxing mode                              : sbtl
Codec ID                                 : tx3g
Duration                                 : 1h 28mn
Bit rate mode                            : Variable
Bit rate                                 : 105 bps
Stream size                              : 67.4 KiB (0%)
Title                                    : English full
Language                                 : English
Default                                  : Yes
Forced                                   : No
Alternate group                          : 2
Encoded date                             : UTC 2018-06-08 09:11:43
Tagged date                              : UTC 2018-06-08 09:11:44

Menu #1
00:00:00.000                             : Chapter 1
00:10:59.159                             : Chapter 2
00:22:00.945                             : Chapter 3
00:33:55.784                             : Chapter 4
00:43:26.646                             : Chapter 5
00:53:02.346                             : Chapter 6
01:02:37.921                             : Chapter 7
01:11:05.762                             : Chapter 8
01:20:32.328                             : Chapter 9

Menu #2
ID                                       : 9
Codec ID                                 : text
Duration                                 : 1h 28mn
Language                                 : English
Encoded date                             : UTC 2018-06-08 09:12:04
Tagged date                              : UTC 2018-06-08 09:12:04
Bit rate mode                            : CBR
Menu For                                 : 2,1
00:00:00.000                             : Chapter 1
00:10:59.159                             : Chapter 2
00:22:00.945                             : Chapter 3
00:33:55.784                             : Chapter 4
00:43:26.646                             : Chapter 5
00:53:02.346                             : Chapter 6
01:02:37.921                             : Chapter 7
01:11:05.762                             : Chapter 8
01:20:32.328                             : Chapter 9
x264 [info]: frame I:1221  Avg QP:16.38  size:246586
x264 [info]: frame P:27613 Avg QP:19.55  size: 76562
x264 [info]: frame B:97991 Avg QP:20.40  size: 29278
x264 [info]: consecutive B-frames:  2.7%  3.6%  6.2% 14.4% 20.5% 43.4%  5.9%  0.8%  0.8%  0.5%  0.3%  0.2%  0.1%  0.1%  0.1%  0.1%  0.3%
x264 [info]: mb I  I16..4: 18.3% 62.2% 19.5%
x264 [info]: mb P  I16..4:  1.7% 14.5%  1.4%  P16..4: 41.4% 20.2% 12.9%  0.5%  0.2%    skip: 7.2%
x264 [info]: mb B  I16..4:  0.1%  1.3%  0.1%  B16..8: 44.2%  9.9%  2.6%  direct: 8.2%  skip:33.6%  L0:43.4% L1:42.8% BI:13.8%
x264 [info]: 8x8 transform intra:79.9% inter:54.0%
x264 [info]: direct mvs  spatial:97.9% temporal:2.1%
x264 [info]: coded y,uvDC,uvAC intra: 90.9% 86.5% 65.7% inter: 33.6% 29.3% 9.8%
x264 [info]: i16 v,h,dc,p: 25% 10% 19% 46%
x264 [info]: i8 v,h,dc,ddl,ddr,vr,hd,vl,hu: 11%  8%  9% 10% 13% 13% 12% 12% 12%
x264 [info]: i4 v,h,dc,ddl,ddr,vr,hd,vl,hu: 11%  8%  5%  9% 14% 15% 13% 12% 13%
x264 [info]: i8c dc,h,v,p: 43% 21% 21% 16%
x264 [info]: Weighted P-Frames: Y:1.9% UV:1.3%
x264 [info]: ref P L0: 51.5% 12.7% 25.1% 10.3%  0.4%  0.0%
x264 [info]: ref B L0: 84.4% 12.8%  2.8%
x264 [info]: ref B L1: 93.6%  6.4%
x264 [info]: kb/s:7991.75

Релиз подготовлен для просмотра на Apple TV, iPad, iPhone, iPod Touch.
Для просмотра данного релиза на компьютере с ОС Windows рекомендуется использовать VLC media player

Трекер:  [ 08-Июн-2018 13:06 ]

  

Скачать .torrent

Размер .torrent файла 59 KB


Размер: 5.84 GB
Хэш (hash) релиза: a3ad1ac1ddfcccbf473c01c9e96eb653eab8e235

Еще никто не оставлял запись к записи скачать торрент [ATV3] Дом The House . Будь первым!

!Обратная связь