A Billion Lives | Code.Black.S01E15.720p.HDTV.X264-DIMENSION[eztv].srt | 1x1351 Amar es para siempre

Скачать через торрент [ATV3] Zомбоящик бесплатно русская версия torrent активатор

Статистика раздачи
Размер:  2.36 GB   |    Зарегистрирован:  17 дней   |    .torrent скачан:  34 раза   |   
Раздают:  1  
   
загрузка...
 
Автор Сообщение

Galfimbul

avatar Galfimbul


Zомбоящик
-

2.621 / 10
Год выпуска: 2017
Страна: Россия
Жанр: Комедия
Продолжительность: 00:59:20

Перевод: (Не требуется)
Оригинальная аудиодорожка: Есть
Cубтитры: Нет
Режиссёр: Константин Смирнов
Продюсер: Вячеслав Дусмухаметов, Артур Джанибекян, Андрей Левин
Оператор: Евгений Привин
Художник: Сергей Телин
В ролях: Гарик Харламов, Гарик Мартиросян, Тимур Батрутдинов, Александр Ревва, Павел Воля, Екатерина Варнава, Андрей Скороход, Роман Юнусов, Ольга Бузова, Анна Хилькевич

Бюджет: 200 000 000 руб.
Сборы в России: $2 965 996

Премьера (РФ): 25 января 2018, «Каропрокат»

Цифровой релиз: 7 июня 2018, «Газпром-медиа»

Описание: Во времена Шекспира весь мир был театром, в наши же дни его захватил зомбоящик. 30 звезд ТНТ. Все жанры: драма, комедия, боевик, триллер, научная фантастика, байопик, эротика и экспериментальное кино. От бессмысленного и беспощадного стеба не скроется никто: ни футболисты, ни геи, ни чиновники, ни священники, ни расисты, ни онанисты! Герои «Zомбоящика» интригуют, дразнят, издеваются и смеются вместе со зрителями, доказывая, что вся наша жизнь и есть «Zомбоящик».
Качество исходника: WEB-DL 1080p (BlueBird)
Качество: WEB-DL
Тип: HD (1080p)
Контейнер: M4V
Видео: H.264, 1920x1080, 16:9, 5 154 Kbps, 25.000 fps

Аудио 1: Русский/Оригинальная дорожка , AAC / 2.0 / 160 Kbps / 48.0 KHz
Аудио 2: Русский/Оригинальная дорожка , AC-3 / 5.1 / 384 Kbps / 48.0 KHz
Sort Name: Zомбоящик
XID: Apple:vendor_id:2017-1047867
contentID: 1358369288
Copyright: © 2018 Каропрокат
Producers: Вячеслав Дусмухаметов, Артур Джанибекян, Андрей Левин
Director: Константин Смирнов
Cast: Гарик Харламов, Гарик Мартиросян, Тимур Батрутдинов, Александр Ревва, Павел Воля, Екатерина Варнава, Андрей Скороход, Роман Юнусов, Ольга Бузова, Анна Хилькевич
Studio: Comedy Club Production, THT
Rating: 136
Long Description: Во времена Шекспира весь мир был театром, в наши же дни его захватил зомбоящик. 30 звезд ТНТ. Все жанры: драма, комедия, боевик, триллер, научная фантастика, байопик, эротика и экспериментальное кино. От бессмысленного и беспощадного стеба не скроется никто: ни футболисты, ни геи, ни чиновники, ни священники, ни расисты, ни онанисты! Герои «Zомбоящика» интригуют, дразнят, издеваются и смеются вместе со зрителями, доказывая, что вся наша жизнь и есть «Zомбоящик».
Description: Во времена Шекспира весь мир был театром, в наши же дни его захватил зомбоящик. 30 звезд ТНТ. Все жанры: драма, комедия, боевик, триллер, научная фантастика, байопик, эротика и экспериментальное кино.
Release Date: 2018-01-25T08:00:00Z
Genre: Comedy
Artist: Константин Смирнов
Name: Zомбоящик
General
Complete name : /Users/imac/HandBrake/Zombibox.WEB-DL.1080p.m4v
Format : MPEG-4
Codec ID : M4V
File size : 2.36 GiB
Duration : 59mn 19s
Overall bit rate mode : Variable
Overall bit rate : 5 705 Kbps
Movie name : Zомбоящик
Performer : Константин Смирнов
Director : Константин Смирнов
Actor : Гарик Харламов / Гарик Мартиросян / Тимур Батрутдинов / Александр Ревва / Павел Воля / Екатерина Варнава / Андрей Скороход / Роман Юнусов / Ольга Бузова / Анна Хилькевич
Producer : Вячеслав Дусмухаметов / Артур Джанибекян / Андрей Левин
Production studio : Comedy Club Production, THT
Genre : Comedy
ContentType : Short Film
Description : Во времена Шекспира весь мир был театром, в наши же дни его захватил зомбоящик. 30 звезд ТНТ. Все жанры: драма, комедия, боевик, триллер, научная фантастика, байопик, эротика и экспериментальное кино.
Recorded date : UTC 2018-01-25 08:00:00
Encoded date : UTC 2018-06-07 19:28:44
Tagged date : UTC 2018-06-07 19:30:30
Copyright : © 2018 Каропрокат
Cover : Yes
Rating : None
Title/Sort : Zомбоящик
LongDescription : Во времена Шекспира весь мир был театром, в наши же дни его захватил зомбоящик. 30 звезд ТНТ. Все жанры: драма, комедия, боевик, триллер, научная фантастика, байопик, эротика и экспериментальное кино. От бессмысленного и беспощадного стеба не скроется никто: ни футболисты, ни геи, ни чиновники, ни священники, ни расисты, ни онанисты! Герои «Zомбоящика» интригуют, дразнят, издеваются и смеются вместе со зрителями, доказывая, что вся наша жизнь и есть «Zомбоящик».
AppleStoreCatalogID : 1358369288
Vendor : Apple:vendor_id:2017-1047867
ContentRating : ru-movie|18+|400|

Video
ID : 1
Format : AVC
Format/Info : Advanced Video Codec
Format profile : [email protected]
Format settings, CABAC : Yes
Format settings, ReFrames : 4 frames
Codec ID : avc1
Codec ID/Info : Advanced Video Coding
Duration : 59mn 19s
Bit rate : 5 154 Kbps
Width : 1 920 pixels
Height : 1 080 pixels
Display aspect ratio : 16:9
Frame rate mode : Constant
Frame rate : 25.000 fps
Color space : YUV
Chroma subsampling : 4:2:0
Bit depth : 8 bits
Scan type : Progressive
Bits/(Pixel*Frame) : 0.099
Stream size : 2.14 GiB (90%)
Title : Main Program
Language : Russian
Encoded date : UTC 2018-06-07 19:28:44
Tagged date : UTC 2018-06-07 19:28:48
Color range : Limited
Color primaries : BT.709
Transfer characteristics : BT.709
Matrix coefficients : BT.709

Audio #1
ID : 2
Format : AAC
Format/Info : Advanced Audio Codec
Format profile : LC
Codec ID : 40
Duration : 59mn 19s
Source duration : 59mn 19s
Bit rate mode : Variable
Bit rate : 158 Kbps
Maximum bit rate : 263 Kbps
Channel(s) : 2 channels
Channel positions : Front: L R
Sampling rate : 48.0 KHz
Compression mode : Lossy
Stream size : 67.1 MiB (3%)
Source stream size : 67.1 MiB (3%)
Title : Russian Stereo
Language : Russian
Encoded date : UTC 2018-06-07 19:28:44
Tagged date : UTC 2018-06-07 19:28:49

Audio #2
ID : 3
Format : AC-3
Format/Info : Audio Coding 3
Mode extension : CM (complete main)
Format settings, Endianness : Big
Codec ID : ac-3
Duration : 59mn 19s
Bit rate mode : Constant
Bit rate : 384 Kbps
Channel(s) : 6 channels
Channel positions : Front: L C R, Side: L R, LFE
Sampling rate : 48.0 KHz
Bit depth : 16 bits
Compression mode : Lossy
Stream size : 163 MiB (7%)
Title : Russian DD 5.1
Language : Russian
Encoded date : UTC 2018-06-07 19:28:44
Tagged date : UTC 2018-06-07 19:28:48

Релиз подготовлен для просмотра на Apple TV, iPad, iPhone, iPod Touch.
Для просмотра данного релиза на компьютере с ОС Windows рекомендуется использовать VLC media player

Трекер:  [ 07-Июн-2018 23:06 ]

  

Скачать .torrent

Размер .torrent файла 24 KB


Размер: 2.36 GB
Хэш (hash) релиза: ea86d2112e2de3a9288342691e8dc250978e7b5d

Еще никто не оставлял запись к записи скачать торрент [ATV3] Zомбоящик . Будь первым!

!Обратная связь