Nero 2014 Platinum 15.0.02200 Final | Xilinx Vivado Design Suite 2015.2 | Dnv Gl As Phastsafeti Offshore 7.2

Скачать через торрент Zомбоящик Фильм бесплатно в хорошем качестве torrent

Скачивайте на UnionPeer.org фильмы через торрент без регистрации. Новинки кино в хорошем качестве через торрент. На UnionPeer.org можно скачать через торрент фильмы 2014 и 2015 годов. Самые новые фильмы.

Скачать торрент Zомбоящик бесплатно через .torrent фильм мультфильм сериал

Статистика раздачи
Размер:  742 MB   |    Зарегистрирован:  17 дней   |    .torrent скачан:  89 раз   |   
Раздают:  1  
   
загрузка...
 
Автор Сообщение

Galfimbul

avatar Galfimbul


Zомбоящик

Жанр: комедия
Год выпуска: 2018
Продолжительность: 00:59:19
Режиссёр:
Константин Смирнов
В ролях:
Гарик Харламов, Гарик Мартиросян, Тимур Батрутдинов, Александр Ревва, Павел Воля, Екатерина Варнава, Андрей Скороход, Роман Юнусов, Ольга Бузова, Анна Хилькевич
Описание:
Во времена Шекспира весь мир был театром, в наши же дни его захватил зомбоящик. 30 звезд ТНТ. Все жанры: драма, комедия, боевик, триллер, научная фантастика, байопик, эротика и экспериментальное кино. От бессмысленного и беспощадного стеба не скроется никто: ни футболисты, ни геи, ни чиновники, ни священники, ни расисты, ни онанисты! Герои «Zомбоящика» интригуют, дразнят, издеваются и смеются вместе со зрителями, доказывая, что вся наша жизнь и есть «Zомбоящик».

Качество видео: WEB-DLRip
Формат видео: AVI

Видео: 688x384 (1.79:1), 25 fps, XviD build 73 ~1609 kbps avg, 0.24 bit/pixel
Аудио: 48 kHz, MPEG Layer 3, 2 ch, ~128.00 kbps avg
<div class="post-box-default">
<div class="post-box">Сэмпл</div>
</div>
Format                      : AVI
Format/Info                 : Audio Video Interleave
File size                   : 742 MiB
Duration                    : 59 min 19 s
Overall bit rate            : 1 748 kb/s
Writing application         : VirtualDubMod 1.5.10.3 | www.virtualdub-fr.org || (build 2550/release)
Writing library             : VirtualDubMod build 2550/release

Video
ID                          : 0
Format                      : MPEG-4 Visual
Format profile              : Advanced [email protected]
Format settings             : BVOP1
Format settings, BVOP       : 1
Format settings, QPel       : No
Format settings, GMC        : No warppoints
Format settings, Matrix     : Default (H.263)
Codec ID                    : XVID
Codec ID/Hint               : XviD
Duration                    : 59 min 19 s
Bit rate                    : 1 610 kb/s
Width                       : 688 pixels
Height                      : 384 pixels
Display aspect ratio        : 16:9
Frame rate                  : 25.000 FPS
Color space                 : YUV
Chroma subsampling          : 4:2:0
Bit depth                   : 8 bits
Scan type                   : Progressive
Compression mode            : Lossy
Bits/(Pixel*Frame)          : 0.244
Stream size                 : 683 MiB (92%)
Writing library             : XviD 73

Audio
ID                          : 1
Format                      : MPEG Audio
Format version              : Version 1
Format profile              : Layer 3
Codec ID                    : 55
Codec ID/Hint               : MP3
Duration                    : 59 min 19 s
Bit rate mode               : Constant
Bit rate                    : 128 kb/s
Channel(s)                  : 2 channels
Sampling rate               : 48.0 kHz
Frame rate                  : 41.667 FPS (1152 SPF)
Compression mode            : Lossy
Stream size                 : 54.3 MiB (7%)
Alignment                   : Aligned on interleaves
Interleave, duration        : 40  ms (1.00 video frame)
Interleave, preload duratio : 504  ms
Writing library             : LAME3.99r
Encoding settings           : -m s -V 4 -q 2 -lowpass 17 -b 128


Трекер:  [ 07-Июн-2018 22:24 ]

  

Скачать .torrent

Размер .torrent файла 15 KB


Размер: 742 MB
Хэш (hash) релиза: e5cf8f1fde24ca4303c98bd4b57b27f0bdd4d440
Подписка на обновления:

Торренты, похожие на Zомбоящик скачать торрент

Форум Название Автор Размер S L Добавлен
Российские фильмы до 2016 ·· Zомбоящик (Константин Смирнов) [2018, Россия, комедия, WEB-DL 1080p] Original Rus Galfimbul 24652575032.3 GB 0 0 1528457423

14:30

8-Июн-18

Российские фильмы до 2016 ·· Zомбоящик (Константин Смирнов) [2018, комедия, WEB-DLRip] Galfimbul 11705446401.09 GB 0 0 1528358049

10:54

7-Июн-18

Российские фильмы до 2016 ·· Zомбоящик (Константин Смирнов) [2018, комедия, WEB-DLRip-AVC] Galfimbul 782706326746 MB 0 0 1528331059

03:24

7-Июн-18

Российские фильмы 2016-2018 (Новинки русского кино) ·· Zомбоящик (Константин Смирнов) [2018 г., Комедия, WEB-DL 720p] Galfimbul 25943633342.42 GB 0 0 1527837318

10:15

1-Июн-18

Российские фильмы 2016-2018 (Новинки русского кино) ·· Zомбоящик (Константин Смирнов) [2018 г., Комедия, WEB-DLRip] Galfimbul 14679388161.37 GB 0 0 1527837317

10:15

1-Июн-18

Российские фильмы 2016-2018 (Новинки русского кино) ·· Zомбоящик (Константин Смирнов) [2018 г., Комедия, TS 720p] | Чистый звук Galfimbul 17479341231.63 GB 0 0 1517135315

13:28

28-Янв-18

Российские фильмы 2016-2018 (Новинки русского кино) ·· Zомбоящик (Константин Смирнов) [2018 г., Комедия, TS] | Чистый звук Galfimbul 733855744700 MB 0 0 1517135313

13:28

28-Янв-18

Еще никто не оставлял запись к записи скачать торрент Zомбоящик . Будь первым!

!Обратная связь