Google + | Mega Man NT Warrior | Arthur Kennedy

Скачать через торрент Дом The House бесплатно Аниме Все серии на русском torrent

Статистика раздачи
Размер:  1.46 GB   |    Зарегистрирован:  1 месяц 9 дней   |    .torrent скачан:  25 раз   |   
Раздают:  1  
   
загрузка...
 
Автор Сообщение

Galfimbul

avatar Galfimbul


Дом / The House

Страна: США
Жанр: комедия
Год выпуска: 2017
Продолжительность: 01:28:09
Перевод: Профессиональный (дублированный) | iTunes
Субтитры: нет
Оригинальная аудиодорожка: нет
Режиссер:
Эндрю Дж. Коэн / Andrew Jay Cohen
В ролях:
Уилл Феррелл, Эми Полер, Джейсон Манцукас, Райан Симпкинс, Ник Кролл, Эллисон Толман, Роб Хюбель, Кристина Оффли, Джесси Эннис, Рори Сковел
Описание:
Скотт и Кейт души не чают в своей дочери Алекс. Особенно они радовались, когда девушку приняли в университет её мечты. Но городской совет на деньги, обещанные родителям на обучение Алекс, решил построить общественный бассейн. Приняв решение быть хорошими родителями любой ценой, парочка поддается на уговоры соседа-игромана устроить в его доме нелегальное казино с рулеткой и кордебалетом.
Качество видео: BDRip | The.House.2017.1080p.BluRay.REMUX.AVC.DTS-HD.MA.5.1-FGT
Формат видео: AVI

Видео: 720x304 (2.37:1), 23.976 fps, XviD build 73 ~1972 kbps avg, 0.38 bit/pixel
Аудио: 48 kHz, AC3 Dolby Digital, 3/2 (L,C,R,l,r) + LFE ch, ~384 kbps avg
<div class="post-box-default">
<div class="post-box">Сэмпл</div>
</div>
[pre]
Format                      : AVI
Format/Info                 : Audio Video Interleave
File size                   : 1.46 GiB
Duration                    : 1 h 28 min
Overall bit rate            : 2 366 kb/s
Writing application         : VirtualDubMod 1.5.10.2 (build 2542/release)
Writing library             : VirtualDubMod build 2542/release

Video
ID                          : 0
Format                      : MPEG-4 Visual
Format profile              : Advanced [email protected]
Format settings             : BVOP1 / Custom Matrix
Format settings, BVOP       : 1
Format settings, QPel       : No
Format settings, GMC        : No warppoints
Format settings, Matrix     : Custom
Codec ID                    : XVID
Codec ID/Hint               : XviD
Duration                    : 1 h 28 min
Bit rate                    : 1 973 kb/s
Width                       : 720 pixels
Height                      : 304 pixels
Display aspect ratio        : 2.35:1
Frame rate                  : 23.976 (24000/1001) FPS
Color space                 : YUV
Chroma subsampling          : 4:2:0
Bit depth                   : 8 bits
Scan type                   : Progressive
Compression mode            : Lossy
Bits/(Pixel*Frame)          : 0.376
Stream size                 : 1.21 GiB (83%)
Writing library             : XviD 73

Audio
ID                          : 1
Format                      : AC-3
Format/Info                 : Audio Coding 3
Codec ID                    : 2000
Duration                    : 1 h 28 min
Bit rate mode               : Constant
Bit rate                    : 384 kb/s
Channel(s)                  : 6 channels
Channel positions           : Front: L C R, Side: L R, LFE
Sampling rate               : 48.0 kHz
Frame rate                  : 31.250 FPS (1536 SPF)
Bit depth                   : 16 bits
Compression mode            : Lossy
Stream size                 : 242 MiB (16%)
Alignment                   : Split accross interleaves
Interleave, duration        : 42  ms (1.00 video frame)
Interleave, preload duratio : 500  ms
Service kind                : Complete Main


Трекер:  [ 07-Июн-2018 21:30 ]

  

Скачать .torrent

Размер .torrent файла 15 KB


Размер: 1.46 GB
Хэш (hash) релиза: 1a3c886df997ab74a3bad1c67f2adf7cfcadfa41
Подписка на обновления:

Еще никто не оставлял запись к записи скачать торрент Дом The House . Будь первым!

!Обратная связь