Yoku Wakaru Gendai Mahou | Trinitee Stokes | Watch movie

Скачать через торрент Смешарики. Дежавю Фильм бесплатно в хорошем качестве torrent

Скачивайте на UnionPeer.org фильмы через торрент без регистрации. Новинки кино в хорошем качестве через торрент. На UnionPeer.org можно скачать через торрент фильмы 2014 и 2015 годов. Самые новые фильмы.

Скачать торрент Смешарики. Дежавю бесплатно через .torrent фильм мультфильм сериал

Статистика раздачи
Размер:  1.46 GB   |    Зарегистрирован:  17 дней   |    .torrent скачан:  96 раз   |   
Раздают:  1  
   
загрузка...
 
Автор Сообщение

Galfimbul

avatar Galfimbul


Смешарики. Дежавю
«Полное Крошилово!»

Год выхода: 2018
Выпущено: Россия / Art Pictures Studio
Жанр: мультфильм, комедия, приключения, семейный
Продолжительность: 01:25:06
Перевод: Не требуется
Субтитры: нет
Режиссер:
Денис Чернов
В ролях:
Павел Деревянко, Антон Виноградов, Сергей Мардарь, Михаил Черняк, Владимир Постников, Светлана Письмиченко, Вадим Бочанов, Михаил Хрусталёв
О фильме:
Крош решает устроить незабываемый день рождения Копатыча — он обращается в агентство «Дежавю», которое обещает своим клиентам удивительные путешествия во времени. Но из-за несоблюдения условий договора всех смешариков раскидывает во времени, а Крошу придется собирать друзей по разным эпохам в компании своего второго «Я» — повзрослевшего и ворчливого Шорка, появившегося из-за временного парадокса.
Релиз групп | | КиноПоиск | Сэмпл |
Качество: WEB-DLRip [WEB-DL | 1080p]
Формат: AVI

Видео: 720x304 (2.37:1), 23.976 fps, XviD build 65 ~2054 kbps avg, 0.39 bit/pixel
Аудио: 48 kHz, AC3 Dolby Digital, 3/2 (L,C,R,l,r) + LFE ch, ~384.00 kbps avg - iTunes Russia
Общее
Полное имя                               : D:\Smeshariki_2018_WEB-DLRip_by_Dalemake.avi
Формат                                   : AVI
Формат/Информация                        : Audio Video Interleave
Размер файла                             : 1,46 Гбайт
Продолжительность                        : 1 ч. 25 м.
Общий поток                              : 2448 Кбит/сек
Программа кодирования                    : VirtualDubMod 1.5.10.3 | www.virtualdub-fr.org || (build 2550/release)
Библиотека кодирования                   : VirtualDubMod build 2550/release

Видео
Идентификатор                            : 0
Формат                                   : MPEG-4 Visual
Профиль формата                          : Advanced [email protected]
Настройки формата                        : BVOP1 / Custom Matrix
Параметр BVOP формата                    : 1
Параметр QPel формата                    : Нет
Параметр GMC формата                     : Без точки перехода
Параметр матрицы формата                 : Выборочная
Идентификатор кодека                     : XVID
Идентификатор кодека/Подсказка           : XviD
Продолжительность                        : 1 ч. 25 м.
Битрейт                                  : 2055 Кбит/сек
Ширина                                   : 720 пикселей
Высота                                   : 304 пикселя
Соотношение сторон                       : 2,35:1
Частота кадров                           : 23,976 (24000/1001) кадра/сек
Частота кадров в оригинале               : 23,976 (23976/1000) кадра/сек
Цветовое пространство                    : YUV
Субдискретизация насыщенности            : 4:2:0
Битовая глубина                          : 8 бит
Тип развёртки                            : Прогрессивная
Метод сжатия                             : С потерями
Бит/(Пиксели*Кадры)                      : 0.392
Размер потока                            : 1,22 Гбайт (84%)
Библиотека кодирования                   : XviD 65

Аудио
Идентификатор                            : 1
Формат                                   : AC-3
Формат/Информация                        : Audio Coding 3
Идентификатор кодека                     : 2000
Продолжительность                        : 1 ч. 25 м.
Вид битрейта                             : Постоянный
Битрейт                                  : 384 Кбит/сек
Каналы                                   : 6 каналов
Расположение каналов                     : Front: L C R, Side: L R, LFE
Частота                                  : 48,0 КГц
Частота кадров                           : 31,250 кадров/сек (1536 SPF)
Битовая глубина                          : 16 бит
Метод сжатия                             : С потерями
Задержка видео                           : 22 мс.
Размер потока                            : 234 Мбайт (16%)
Выравнивание                             : Разделение по промежуткам
Продолжительность промежутка             : 42  мс. (1,00 видеокадр)
Время предзагрузки промежутка            : 500  мс.



Трекер:  [ 07-Июн-2018 15:30 ]

  

Скачать .torrent

Размер .torrent файла 15 KB


Размер: 1.46 GB
Хэш (hash) релиза: 347c80831800995311dc88fecc8ce677e90b8e61
Подписка на обновления:

Торренты, похожие на Смешарики. Дежавю скачать торрент

Форум Название Автор Размер S L Добавлен
Мультфильмы до 2016 ·· Смешарики. Дежавю (Денис Чернов) [2018, мультфильм, комедия, приключения, семейный, WEB-DLRip] Galfimbul 778788864743 MB 0 0 1528392740

20:32

7-Июн-18

Еще никто не оставлял запись к записи скачать торрент Смешарики. Дежавю . Будь первым!

!Обратная связь