The Smurfs 2 (2013) | David Cronenberg | Voir la suite

Скачать через торрент Можно только представить I Can Only Imagine бесплатно русская версия torrent активатор

Статистика раздачи
Размер:  3.72 GB   |    Зарегистрирован:  18 дней   |    .torrent скачан:  15 раз   |   
Раздают:  1  
   
загрузка...
 
Автор Сообщение

Galfimbul

avatar Galfimbul


Можно только представить / I Can Only Imagine
«Песня, ставшая легендой»

7.402 / 10 7.60 / 10
Год выпуска: 2018
Страна: США
Жанр: Драма, семейный
Продолжительность: 01:50:20

Перевод: Дублированный (iTunes)
Оригинальная аудиодорожка: Есть
Cубтитры: Английские
Режиссёр: Эндрю Эрвин, Джон Эрвин
Сценарий: Джон Эрвин, Брент МакКоркл, Alex Cramer
Продюсер: Синди Бонд, Кевин Даунс, Брент Райан Грин
Оператор: Кристофер Кимлин
Композитор: Брент МакКоркл
Художник: Джозеф Т. Гэррити, Анна Рэдмон, Clarisa Garcia-Fresco
Монтаж: Эндрю Эрвин, Брент МакКоркл
В ролях: Деннис Куэйд, Дж. Майкл Финли, Броди Роуз, Трэйси Д. Эдкинс, Erik Ashlock, Gina D. Brewer, Joy Brewer, O'Shay Brooks, Джейсон Бёрки, Taegen Burns

Бюджет: $7 000 000
Сборы в США: $83 156 108
Сборы в России: $8 025

Мировая премьера: 16 марта 2018
Премьера (РФ): 15 марта 2018, «Парадиз»

Описание: История рождения одноименной песни группы MercyMe. Лидер команды посвятил эту песню о вере, любви и прощении своему отцу, не подозревая, что скоро она облетит весь мир, станет платиновым хитом, а главное — подарит надежду миллионам людей.
Качество исходника: BDRemux (NNMClub)
Качество: BDRip
Тип: HD (720p)
Контейнер: M4V
Видео: H.264, 1280x544, 2.35:1, 3 500 Kbps, 23.976 (24000/1001) fps

Аудио 1: Русский/Дублированный (iTunes), AAC / 2.0 / 160 Kbps / 48.0 KHz
Аудио 2: Английский/Оригинальная дорожка , AAC / 2.0 / 160 Kbps / 48.0 KHz
Аудио 3: Русский/Дублированный (iTunes), AC-3 / 5.1 / 384 Kbps / 48.0 KHz
Аудио 4: Английский/Оригинальная дорожка , AC-3 / 5.1 / 640 Kbps / 48.0 KHz

Субтитры: Английские полные
Sort Name: I Can Only Imagine
XID: Apple:vendor_id:2018-1015002
contentID: 1354773276
Copyright: © 2017 Imagine Rights LLC. All Rights Reserved. Artwork & Supplementary Materials 2018 Lions Gate Entertainment Inc. All Rights Reserved
Screenwriters: Джон Эрвин, Брент МакКоркл, Alex Cramer
Producers: Синди Бонд, Кевин Даунс, Брент Райан Грин
Director: Эндрю Эрвин, Джон Эрвин
Cast: Деннис Куэйд, Дж. Майкл Финли, Броди Роуз, Трэйси Д. Эдкинс, Erik Ashlock, Gina D. Brewer, Joy Brewer, O\'Shay Brooks, Джейсон Бёрки, Taegen Burns
Studio: Lionsgate
Rating Annotation: Rated PG for thematic elements including some violence.
Rating: 3
Long Description: История рождения одноименной песни группы MercyMe. Лидер команды посвятил эту песню о вере, любви и прощении своему отцу, не подозревая, что скоро она облетит весь мир, станет платиновым хитом, а главное - подарит надежду миллионам людей.
Description: История рождения одноименной песни группы MercyMe. Лидер команды посвятил эту песню о вере, любви и прощении своему отцу, не подозревая, что скоро она облетит весь мир, станет платиновым хитом, а главное - подарит надежду миллионам людей.
Release Date: 2018-03-16T08:00:00Z
Genre: Kids & Family
Artist: Andrew Erwin & Jon Erwin
Name: I Can Only Imagine
General
Complete name                            : /Users/imac/HandBrake/I Can Only Imagine (720p HD).m4v
Format                                   : MPEG-4
Codec ID                                 : M4V  (M4V /M4A /mp42/isom)
File size                                : 3.72 GiB
Duration                                 : 1h 50mn
Overall bit rate mode                    : Variable
Overall bit rate                         : 4 829 Kbps
Movie name                               : I Can Only Imagine
Performer                                : Andrew Erwin & Jon Erwin
Director                                 : Эндрю Эрвин / Джон Эрвин
Actor                                    : Деннис Куэйд / Дж. Майкл Финли / Броди Роуз / Трэйси Д. Эдкинс / Erik Ashlock / Gina D. Brewer / Joy Brewer / O\'Shay Brooks / Джейсон Бёрки / Taegen Burns
Screenplay by                            : Джон Эрвин / Брент МакКоркл / Alex Cramer
Producer                                 : Синди Бонд / Кевин Даунс / Брент Райан Грин
Production studio                        : Lionsgate
Genre                                    : Kids & Family
ContentType                              : Short Film
Description                              : История рождения одноименной песни группы MercyMe. Лидер команды посвятил эту песню о вере, любви и прощении своему отцу, не подозревая, что скоро она облетит весь мир, станет платиновым хитом, а главное - подарит надежду миллионам людей.
Recorded date                            : UTC 2018-03-16 08:00:00
Encoded date                             : UTC 2018-06-07 10:19:40
Tagged date                              : UTC 2018-06-07 10:21:20
Copyright                                : © 2017 Imagine Rights LLC. All Rights Reserved. Artwork & Supplementary Materials 2018 Lions Gate Entertainment Inc. All Rights Reserved
Cover                                    : Yes
Rating                                   : None
Title/Sort                               : I Can Only Imagine
LongDescription                          : История рождения одноименной песни группы MercyMe. Лидер команды посвятил эту песню о вере, любви и прощении своему отцу, не подозревая, что скоро она облетит весь мир, станет платиновым хитом, а главное - подарит надежду миллионам людей.
HDVideo                                  : Yes
AppleStoreCatalogID                      : 1354773276
Vendor                                   : Apple:vendor_id:2018-1015002
ContentRating                            : mpaa|PG|200|Rated PG for thematic elements including some violence.

Video #1
ID                                       : 1
Format                                   : AVC
Format/Info                              : Advanced Video Codec
Format profile                           : [email protected]
Format settings                          : 3 Ref Frames
Format settings, CABAC                   : No
Format settings, ReFrames                : 3 frames
Codec ID                                 : avc1
Codec ID/Info                            : Advanced Video Coding
Duration                                 : 1h 50mn
Source duration                          : 1h 50mn
Bit rate                                 : 3 500 Kbps
Width                                    : 1 280 pixels
Height                                   : 544 pixels
Display aspect ratio                     : 2.35:1
Frame rate mode                          : Variable
Frame rate                               : 23.976 (24000/1001) fps
Minimum frame rate                       : 23.974 fps
Maximum frame rate                       : 23.981 fps
Color space                              : YUV
Chroma subsampling                       : 4:2:0
Bit depth                                : 8 bits
Scan type                                : Progressive
Bits/(Pixel*Frame)                       : 0.210
Stream size                              : 2.69 GiB (72%)
Source stream size                       : 2.69 GiB (72%)
Title                                    : Main Program
Writing library                          : x264 core 155 r2893 b00bcaf
Encoding settings                        : cabac=0 / ref=3 / deblock=1:-3:-3 / analyse=0x3:0x113 / me=umh / subme=9 / psy=1 / psy_rd=1.00:0.15 / mixed_ref=1 / me_range=32 / chroma_me=1 / trellis=0 / 8x8dct=1 / cqm=0 / deadzone=21,11 / fast_pskip=0 / chroma_qp_offset=-2 / threads=17 / lookahead_threads=1 / sliced_threads=0 / nr=0 / decimate=0 / interlaced=0 / bluray_compat=0 / constrained_intra=0 / bframes=3 / b_pyramid=0 / b_adapt=2 / b_bias=0 / direct=1 / weightb=0 / open_gop=0 / weightp=0 / keyint=240 / keyint_min=24 / scenecut=40 / intra_refresh=0 / rc_lookahead=40 / rc=2pass / mbtree=1 / bitrate=3500 / ratetol=1.0 / qcomp=0.65 / qpmin=0 / qpmax=69 / qpstep=4 / cplxblur=20.0 / qblur=0.5 / vbv_maxrate=9500 / vbv_bufsize=9500 / nal_hrd=none / filler=0 / ip_ratio=1.40 / aq=1:1.10
Language                                 : English
Encoded date                             : UTC 2018-06-07 10:19:40
Tagged date                              : UTC 2018-06-07 10:19:47
Color range                              : Limited
Color primaries                          : BT.709
Transfer characteristics                 : BT.709
Matrix coefficients                      : BT.709
Menus                                    : 7,8

Video #2
ID                                       : 8
Format                                   : JPEG
Codec ID                                 : jpeg
Duration                                 : 1h 50mn
Bit rate mode                            : Variable
Bit rate                                 : 488 bps
Width                                    : 640 pixels
Height                                   : 272 pixels
Display aspect ratio                     : 2.35:1
Frame rate mode                          : Variable
Frame rate                               : 0.002 fps
Minimum frame rate                       : 0.002 fps
Maximum frame rate                       : 0.004 fps
Color space                              : YUV
Chroma subsampling                       : 4:2:0
Bit depth                                : 8 bits
Compression mode                         : Lossy
Bits/(Pixel*Frame)                       : 1.402
Stream size                              : 476 KiB (0%)
Title                                    : Chapter Images
Language                                 : English
Default                                  : No
Encoded date                             : UTC 2018-06-07 10:20:16
Tagged date                              : UTC 2018-06-07 10:20:17
Menu For                                 : 1
ColorSpace_ICC                           : RGB

Audio #1
ID                                       : 2
Format                                   : AAC
Format/Info                              : Advanced Audio Codec
Format profile                           : LC
Codec ID                                 : mp4a-40-2
Duration                                 : 1h 50mn
Source duration                          : 1h 50mn
Bit rate mode                            : Variable
Bit rate                                 : 154 Kbps
Maximum bit rate                         : 225 Kbps
Channel(s)                               : 2 channels
Channel positions                        : Front: L R
Sampling rate                            : 48.0 KHz
Frame rate                               : 46.875 fps (1024 SPF)
Compression mode                         : Lossy
Stream size                              : 121 MiB (3%)
Source stream size                       : 121 MiB (3%)
Title                                    : Russian Stereo
Language                                 : Russian
Default                                  : Yes
Alternate group                          : 1
Encoded date                             : UTC 2018-06-07 10:19:40
Tagged date                              : UTC 2018-06-07 10:20:13
Fallback From                            : 4

Audio #2
ID                                       : 3
Format                                   : AAC
Format/Info                              : Advanced Audio Codec
Format profile                           : LC
Codec ID                                 : mp4a-40-2
Duration                                 : 1h 50mn
Source duration                          : 1h 50mn
Bit rate mode                            : Variable
Bit rate                                 : 151 Kbps
Maximum bit rate                         : 250 Kbps
Channel(s)                               : 2 channels
Channel positions                        : Front: L R
Sampling rate                            : 48.0 KHz
Frame rate                               : 46.875 fps (1024 SPF)
Compression mode                         : Lossy
Stream size                              : 119 MiB (3%)
Source stream size                       : 119 MiB (3%)
Title                                    : English Stereo
Language                                 : English
Default                                  : No
Alternate group                          : 1
Encoded date                             : UTC 2018-06-07 10:19:40
Tagged date                              : UTC 2018-06-07 10:20:13
Fallback From                            : 5

Audio #3
ID                                       : 4
Format                                   : AC-3
Format/Info                              : Audio Coding 3
Codec ID                                 : ac-3
Duration                                 : 1h 50mn
Bit rate mode                            : Constant
Bit rate                                 : 384 Kbps
Channel(s)                               : 6 channels
Channel positions                        : Front: L C R, Side: L R, LFE
Sampling rate                            : 48.0 KHz
Frame rate                               : 31.250 fps (1536 SPF)
Bit depth                                : 16 bits
Compression mode                         : Lossy
Stream size                              : 303 MiB (8%)
Title                                    : Russian DD 5.1
Language                                 : Russian
Service kind                             : Complete Main
Default                                  : Inherited From: 2
Alternate group                          : 1
Encoded date                             : UTC 2018-06-07 10:19:40
Tagged date                              : UTC 2018-06-07 10:20:13
Fallback To                              : 2

Audio #4
ID                                       : 5
Format                                   : AC-3
Format/Info                              : Audio Coding 3
Codec ID                                 : ac-3
Duration                                 : 1h 50mn
Bit rate mode                            : Constant
Bit rate                                 : 640 Kbps
Channel(s)                               : 6 channels
Channel positions                        : Front: L C R, Side: L R, LFE
Sampling rate                            : 48.0 KHz
Frame rate                               : 31.250 fps (1536 SPF)
Bit depth                                : 16 bits
Compression mode                         : Lossy
Stream size                              : 505 MiB (13%)
Title                                    : English DD 5.1
Language                                 : English
Service kind                             : Complete Main
Default                                  : No
Alternate group                          : 1
Encoded date                             : UTC 2018-06-07 10:19:40
Tagged date                              : UTC 2018-06-07 10:20:13
Fallback To                              : 3

Text
ID                                       : 6
Format                                   : Timed Text
Muxing mode                              : sbtl
Codec ID                                 : tx3g
Duration                                 : 1h 45mn
Bit rate mode                            : Variable
Bit rate                                 : 62 bps
Stream size                              : 47.8 KiB (0%)
Title                                    : English full
Language                                 : English
Default                                  : Yes
Forced                                   : No
Alternate group                          : 2
Encoded date                             : UTC 2018-06-07 10:19:40
Tagged date                              : UTC 2018-06-07 10:20:12

Menu #1
00:00:00.000                             : Chapter 1
00:08:27.841                             : Chapter 2
00:14:29.869                             : Chapter 3
00:21:22.281                             : Chapter 4
00:28:10.689                             : Chapter 5
00:36:22.180                             : Chapter 6
00:44:25.663                             : Chapter 7
00:52:21.138                             : Chapter 8
01:01:10.667                             : Chapter 9
01:09:12.148                             : Chapter 10
01:13:46.422                             : Chapter 11
01:22:25.941                             : Chapter 12
01:26:10.165                             : Chapter 13
01:34:16.651                             : Chapter 14
01:41:24.078                             : Chapter 15
01:45:43.337                             : Chapter 16

Menu #2
ID                                       : 7
Codec ID                                 : text
Duration                                 : 1h 50mn
Language                                 : English
Encoded date                             : UTC 2018-06-07 10:20:13
Tagged date                              : UTC 2018-06-07 10:20:13
Menu For                                 : 1
00:00:00.000                             : Chapter 1
00:08:27.841                             : Chapter 2
00:14:29.869                             : Chapter 3
00:21:22.281                             : Chapter 4
00:28:10.689                             : Chapter 5
00:36:22.180                             : Chapter 6
00:44:25.663                             : Chapter 7
00:52:21.138                             : Chapter 8
01:01:10.667                             : Chapter 9
01:09:12.148                             : Chapter 10
01:13:46.422                             : Chapter 11
01:22:25.941                             : Chapter 12
01:26:10.165                             : Chapter 13
01:34:16.651                             : Chapter 14
01:41:24.078                             : Chapter 15
01:45:43.337                             : Chapter 16
Bit rate mode                            : VBR
x264 [info]: frame I:1558  Avg QP:14.56  size: 98639
x264 [info]: frame P:57768 Avg QP:17.04  size: 32776
x264 [info]: frame B:99406 Avg QP:18.66  size:  8467
x264 [info]: consecutive B-frames:  4.5% 24.3% 35.1% 36.1%
x264 [info]: mb I  I16..4: 10.2% 55.8% 34.0%
x264 [info]: mb P  I16..4:  3.2%  6.9%  2.9%  P16..4: 45.1% 25.6% 10.5%  0.0%  0.0%    skip: 5.8%
x264 [info]: mb B  I16..4:  0.4%  0.6%  0.2%  B16..8: 45.2% 10.8%  1.5%  direct: 5.4%  skip:35.9%  L0:39.4% L1:51.9% BI: 8.8%
x264 [info]: 8x8 transform intra:53.0% inter:45.1%
x264 [info]: coded y,uvDC,uvAC intra: 68.8% 80.4% 59.7% inter: 24.1% 29.0% 16.1%
x264 [info]: i16 v,h,dc,p: 39% 22%  6% 33%
x264 [info]: i8 v,h,dc,ddl,ddr,vr,hd,vl,hu: 10%  8% 10% 11% 14% 14% 12% 11% 10%
x264 [info]: i4 v,h,dc,ddl,ddr,vr,hd,vl,hu: 11% 11%  7% 11% 16% 15% 12% 10%  8%
x264 [info]: i8c dc,h,v,p: 54% 16% 19% 11%
x264 [info]: ref P L0: 72.4% 16.3% 11.3%
x264 [info]: ref B L0: 81.0% 19.0%
x264 [info]: kb/s:3490.72

Релиз подготовлен для просмотра на Apple TV, iPad, iPhone, iPod Touch.
Для просмотра данного релиза на компьютере с ОС Windows рекомендуется использовать VLC media player

Трекер:  [ 07-Июн-2018 13:36 ]

  

Скачать .torrent

Размер .torrent файла 37 KB


Размер: 3.72 GB
Хэш (hash) релиза: 115828000f9cff1157397da1724797b95fc5af63

Торренты, похожие на Можно только представить I Can Only Imagine скачать торрент

Форум Название Автор Размер S L Добавлен
Видео (iPhone/iPod Touch/iPad) ·· [ATV3] Можно только представить / I Can Only Imagine (Эндрю Эрвин, Джон Эрвин / Andrew Erwin, Jon Erwin ) [2018, США, Драма, семейный, BDRip, HD (1080p)] DUB + Original + sub (eng) Galfimbul 77231594157.19 GB 0 0 1528365975

13:06

7-Июн-18

Еще никто не оставлял запись к записи скачать торрент Можно только представить I Can Only Imagine . Будь первым!

!Обратная связь