OpenLoad | Capítulo 27: O Assassinato de John Lennon Assistir Capítulo 27: O Assassinato de John Lennon 720p Dublado/Legendado Online Em 1980, Mark Chapman ganhou as manchetes por ter assassinado John Lennon na entrada do prédio onde o cantor morava em Nova York. Ao que parece, distúrbios mentais causados por uma forte obsessão fizeram Chapman cometer o crime. Ver filme Capítulo 27: O Assassinato de John Lennon Dublado/Legendado Ver Filme Chapter 27 ... | Mengerti Perasaan Ku

Скачать через торрент [ATV3] Можно только представить I Can Only Imagine бесплатно русская версия torrent активатор

Статистика раздачи
Размер:  7.19 GB   |    Зарегистрирован:  18 дней   |    .torrent скачан:  13 раз   |   
Раздают:  1  
   
загрузка...
 
Автор Сообщение

Galfimbul

avatar Galfimbul


Можно только представить / I Can Only Imagine
«Песня, ставшая легендой»

7.402 / 10 7.60 / 10
Год выпуска: 2018
Страна: США
Жанр: Драма, семейный
Продолжительность: 01:50:20

Перевод: Дублированный (iTunes)
Оригинальная аудиодорожка: Есть
Cубтитры: Английские
Режиссёр: Эндрю Эрвин, Джон Эрвин
Сценарий: Джон Эрвин, Брент МакКоркл, Alex Cramer
Продюсер: Синди Бонд, Кевин Даунс, Брент Райан Грин
Оператор: Кристофер Кимлин
Композитор: Брент МакКоркл
Художник: Джозеф Т. Гэррити, Анна Рэдмон, Clarisa Garcia-Fresco
Монтаж: Эндрю Эрвин, Брент МакКоркл
В ролях: Деннис Куэйд, Дж. Майкл Финли, Броди Роуз, Трэйси Д. Эдкинс, Erik Ashlock, Gina D. Brewer, Joy Brewer, O'Shay Brooks, Джейсон Бёрки, Taegen Burns

Бюджет: $7 000 000
Сборы в США: $83 156 108
Сборы в России: $8 025

Мировая премьера: 16 марта 2018
Премьера (РФ): 15 марта 2018, «Парадиз»

Описание: История рождения одноименной песни группы MercyMe. Лидер команды посвятил эту песню о вере, любви и прощении своему отцу, не подозревая, что скоро она облетит весь мир, станет платиновым хитом, а главное — подарит надежду миллионам людей.
Качество исходника: BDRemux (NNMClub)
Качество: BDRip
Тип: HD (1080p)
Контейнер: M4V
Видео: H.264, 1920x816, 2.35:1, 8 000 Kbps, 23.976 (24000/1001) fps

Аудио 1: Русский/Дублированный (iTunes), AAC / 2.0 / 160 Kbps / 48.0 KHz
Аудио 2: Английский/Оригинальная дорожка , AAC / 2.0 / 160 Kbps / 48.0 KHz
Аудио 3: Русский/Дублированный (iTunes), AC-3 / 5.1 / 384 Kbps / 48.0 KHz
Аудио 4: Английский/Оригинальная дорожка , AC-3 / 5.1 / 640 Kbps / 48.0 KHz

Субтитры: Английские полные
Sort Name: I Can Only Imagine
XID: Apple:vendor_id:2018-1015002
contentID: 1354773276
Copyright: © 2017 Imagine Rights LLC. All Rights Reserved. Artwork & Supplementary Materials 2018 Lions Gate Entertainment Inc. All Rights Reserved
Screenwriters: Джон Эрвин, Брент МакКоркл, Alex Cramer
Producers: Синди Бонд, Кевин Даунс, Брент Райан Грин
Director: Эндрю Эрвин, Джон Эрвин
Cast: Деннис Куэйд, Дж. Майкл Финли, Броди Роуз, Трэйси Д. Эдкинс, Erik Ashlock, Gina D. Brewer, Joy Brewer, O\'Shay Brooks, Джейсон Бёрки, Taegen Burns
Studio: Lionsgate
Rating Annotation: Rated PG for thematic elements including some violence.
Rating: 3
Long Description: История рождения одноименной песни группы MercyMe. Лидер команды посвятил эту песню о вере, любви и прощении своему отцу, не подозревая, что скоро она облетит весь мир, станет платиновым хитом, а главное - подарит надежду миллионам людей.
Description: История рождения одноименной песни группы MercyMe. Лидер команды посвятил эту песню о вере, любви и прощении своему отцу, не подозревая, что скоро она облетит весь мир, станет платиновым хитом, а главное - подарит надежду миллионам людей.
Release Date: 2018-03-16T08:00:00Z
Genre: Kids & Family
Artist: Andrew Erwin & Jon Erwin
Name: I Can Only Imagine
General
Complete name                            : /Users/imac/HandBrake/I Can Only Imagine (1080p HD).m4v
Format                                   : MPEG-4
Codec ID                                 : M4V  (M4V /M4A /mp42/isom)
File size                                : 7.19 GiB
Duration                                 : 1h 50mn
Overall bit rate mode                    : Variable
Overall bit rate                         : 9 332 Kbps
Movie name                               : I Can Only Imagine
Performer                                : Andrew Erwin & Jon Erwin
Director                                 : Эндрю Эрвин / Джон Эрвин
Actor                                    : Деннис Куэйд / Дж. Майкл Финли / Броди Роуз / Трэйси Д. Эдкинс / Erik Ashlock / Gina D. Brewer / Joy Brewer / O\'Shay Brooks / Джейсон Бёрки / Taegen Burns
Screenplay by                            : Джон Эрвин / Брент МакКоркл / Alex Cramer
Producer                                 : Синди Бонд / Кевин Даунс / Брент Райан Грин
Production studio                        : Lionsgate
Genre                                    : Kids & Family
ContentType                              : Short Film
Description                              : История рождения одноименной песни группы MercyMe. Лидер команды посвятил эту песню о вере, любви и прощении своему отцу, не подозревая, что скоро она облетит весь мир, станет платиновым хитом, а главное - подарит надежду миллионам людей.
Recorded date                            : UTC 2018-03-16 08:00:00
Encoded date                             : UTC 2018-06-07 08:57:45
Tagged date                              : UTC 2018-06-07 09:01:58
Copyright                                : © 2017 Imagine Rights LLC. All Rights Reserved. Artwork & Supplementary Materials 2018 Lions Gate Entertainment Inc. All Rights Reserved
Cover                                    : Yes
Rating                                   : None
Title/Sort                               : I Can Only Imagine
LongDescription                          : История рождения одноименной песни группы MercyMe. Лидер команды посвятил эту песню о вере, любви и прощении своему отцу, не подозревая, что скоро она облетит весь мир, станет платиновым хитом, а главное - подарит надежду миллионам людей.
AppleStoreCatalogID                      : 1354773276
Vendor                                   : Apple:vendor_id:2018-1015002
ContentRating                            : mpaa|PG|200|Rated PG for thematic elements including some violence.

Video #1
ID                                       : 1
Format                                   : AVC
Format/Info                              : Advanced Video Codec
Format profile                           : [email protected]
Format settings                          : CABAC / 4 Ref Frames
Format settings, CABAC                   : Yes
Format settings, ReFrames                : 4 frames
Codec ID                                 : avc1
Codec ID/Info                            : Advanced Video Coding
Duration                                 : 1h 50mn
Source duration                          : 1h 50mn
Bit rate                                 : 8 000 Kbps
Width                                    : 1 920 pixels
Height                                   : 816 pixels
Display aspect ratio                     : 2.35:1
Frame rate mode                          : Variable
Frame rate                               : 23.976 (24000/1001) fps
Minimum frame rate                       : 23.974 fps
Maximum frame rate                       : 23.981 fps
Color space                              : YUV
Chroma subsampling                       : 4:2:0
Bit depth                                : 8 bits
Scan type                                : Progressive
Bits/(Pixel*Frame)                       : 0.213
Stream size                              : 6.16 GiB (86%)
Source stream size                       : 6.16 GiB (86%)
Title                                    : Main Program
Writing library                          : x264 core 155 r2893 b00bcaf
Encoding settings                        : cabac=1 / ref=4 / deblock=1:-2:-2 / analyse=0x3:0x133 / me=umh / subme=10 / psy=1 / psy_rd=1.00:0.15 / mixed_ref=1 / me_range=32 / chroma_me=1 / trellis=2 / 8x8dct=1 / cqm=0 / deadzone=21,11 / fast_pskip=1 / chroma_qp_offset=-3 / threads=25 / lookahead_threads=6 / sliced_threads=0 / nr=0 / decimate=0 / interlaced=0 / bluray_compat=0 / constrained_intra=0 / bframes=16 / b_pyramid=2 / b_adapt=2 / b_bias=0 / direct=3 / weightb=1 / open_gop=0 / weightp=2 / keyint=240 / keyint_min=24 / scenecut=40 / intra_refresh=0 / rc_lookahead=40 / rc=2pass / mbtree=1 / bitrate=8000 / ratetol=1.0 / qcomp=0.70 / qpmin=0 / qpmax=69 / qpstep=4 / cplxblur=20.0 / qblur=0.5 / ip_ratio=1.40 / aq=1:1.00
Language                                 : English
Encoded date                             : UTC 2018-06-07 08:57:45
Tagged date                              : UTC 2018-06-07 08:58:03
Color range                              : Limited
Color primaries                          : BT.709
Transfer characteristics                 : BT.709
Matrix coefficients                      : BT.709
Menus                                    : 7,8

Video #2
ID                                       : 8
Format                                   : JPEG
Codec ID                                 : jpeg
Duration                                 : 1h 50mn
Bit rate mode                            : Variable
Bit rate                                 : 494 bps
Width                                    : 640 pixels
Height                                   : 272 pixels
Display aspect ratio                     : 2.35:1
Frame rate mode                          : Variable
Frame rate                               : 0.002 fps
Minimum frame rate                       : 0.002 fps
Maximum frame rate                       : 0.004 fps
Color space                              : YUV
Chroma subsampling                       : 4:2:0
Bit depth                                : 8 bits
Compression mode                         : Lossy
Bits/(Pixel*Frame)                       : 1.419
Stream size                              : 483 KiB (0%)
Title                                    : Chapter Images
Language                                 : English
Default                                  : No
Encoded date                             : UTC 2018-06-07 08:58:14
Tagged date                              : UTC 2018-06-07 08:58:15
Menu For                                 : 1
ColorSpace_ICC                           : RGB

Audio #1
ID                                       : 2
Format                                   : AAC
Format/Info                              : Advanced Audio Codec
Format profile                           : LC
Codec ID                                 : mp4a-40-2
Duration                                 : 1h 50mn
Source duration                          : 1h 50mn
Bit rate mode                            : Variable
Bit rate                                 : 154 Kbps
Maximum bit rate                         : 225 Kbps
Channel(s)                               : 2 channels
Channel positions                        : Front: L R
Sampling rate                            : 48.0 KHz
Frame rate                               : 46.875 fps (1024 SPF)
Compression mode                         : Lossy
Stream size                              : 121 MiB (2%)
Source stream size                       : 121 MiB (2%)
Title                                    : Russian Stereo
Language                                 : Russian
Default                                  : Yes
Alternate group                          : 1
Encoded date                             : UTC 2018-06-07 08:57:45
Tagged date                              : UTC 2018-06-07 08:58:07
Fallback From                            : 4
Menus                                    : 7

Audio #2
ID                                       : 3
Format                                   : AAC
Format/Info                              : Advanced Audio Codec
Format profile                           : LC
Codec ID                                 : mp4a-40-2
Duration                                 : 1h 50mn
Source duration                          : 1h 50mn
Bit rate mode                            : Variable
Bit rate                                 : 151 Kbps
Maximum bit rate                         : 250 Kbps
Channel(s)                               : 2 channels
Channel positions                        : Front: L R
Sampling rate                            : 48.0 KHz
Frame rate                               : 46.875 fps (1024 SPF)
Compression mode                         : Lossy
Stream size                              : 119 MiB (2%)
Source stream size                       : 119 MiB (2%)
Title                                    : English Stereo
Language                                 : English
Default                                  : No
Alternate group                          : 1
Encoded date                             : UTC 2018-06-07 08:57:45
Tagged date                              : UTC 2018-06-07 08:58:07
Fallback From                            : 5

Audio #3
ID                                       : 4
Format                                   : AC-3
Format/Info                              : Audio Coding 3
Codec ID                                 : ac-3
Duration                                 : 1h 50mn
Bit rate mode                            : Constant
Bit rate                                 : 384 Kbps
Channel(s)                               : 6 channels
Channel positions                        : Front: L C R, Side: L R, LFE
Sampling rate                            : 48.0 KHz
Frame rate                               : 31.250 fps (1536 SPF)
Bit depth                                : 16 bits
Compression mode                         : Lossy
Stream size                              : 303 MiB (4%)
Title                                    : Russian DD 5.1
Language                                 : Russian
Service kind                             : Complete Main
Default                                  : Inherited From: 2
Alternate group                          : 1
Encoded date                             : UTC 2018-06-07 08:57:45
Tagged date                              : UTC 2018-06-07 08:57:56
Fallback To                              : 2

Audio #4
ID                                       : 5
Format                                   : AC-3
Format/Info                              : Audio Coding 3
Codec ID                                 : ac-3
Duration                                 : 1h 50mn
Bit rate mode                            : Constant
Bit rate                                 : 640 Kbps
Channel(s)                               : 6 channels
Channel positions                        : Front: L C R, Side: L R, LFE
Sampling rate                            : 48.0 KHz
Frame rate                               : 31.250 fps (1536 SPF)
Bit depth                                : 16 bits
Compression mode                         : Lossy
Stream size                              : 505 MiB (7%)
Title                                    : English DD 5.1
Language                                 : English
Service kind                             : Complete Main
Default                                  : No
Alternate group                          : 1
Encoded date                             : UTC 2018-06-07 08:57:45
Tagged date                              : UTC 2018-06-07 08:57:56
Fallback To                              : 3

Text
ID                                       : 6
Format                                   : Timed Text
Muxing mode                              : sbtl
Codec ID                                 : tx3g
Duration                                 : 1h 45mn
Bit rate mode                            : Variable
Bit rate                                 : 62 bps
Stream size                              : 47.9 KiB (0%)
Title                                    : English full
Language                                 : English
Default                                  : Yes
Forced                                   : No
Alternate group                          : 2
Encoded date                             : UTC 2018-06-07 08:57:45
Tagged date                              : UTC 2018-06-07 08:57:46

Menu #1
00:00:00.000                             : Chapter 1
00:08:27.841                             : Chapter 2
00:14:29.869                             : Chapter 3
00:21:22.281                             : Chapter 4
00:28:10.689                             : Chapter 5
00:36:22.180                             : Chapter 6
00:44:25.663                             : Chapter 7
00:52:21.138                             : Chapter 8
01:01:10.667                             : Chapter 9
01:09:12.148                             : Chapter 10
01:13:46.422                             : Chapter 11
01:22:25.941                             : Chapter 12
01:26:10.165                             : Chapter 13
01:34:16.651                             : Chapter 14
01:41:24.078                             : Chapter 15
01:45:43.337                             : Chapter 16

Menu #2
ID                                       : 7
Codec ID                                 : text
Duration                                 : 1h 50mn
Language                                 : English
Encoded date                             : UTC 2018-06-07 08:58:07
Tagged date                              : UTC 2018-06-07 08:58:07
Menu For                                 : 2,1
00:00:00.000                             : Chapter 1
00:08:27.841                             : Chapter 2
00:14:29.869                             : Chapter 3
00:21:22.281                             : Chapter 4
00:28:10.689                             : Chapter 5
00:36:22.180                             : Chapter 6
00:44:25.663                             : Chapter 7
00:52:21.138                             : Chapter 8
01:01:10.667                             : Chapter 9
01:09:12.148                             : Chapter 10
01:13:46.422                             : Chapter 11
01:22:25.941                             : Chapter 12
01:26:10.165                             : Chapter 13
01:34:16.651                             : Chapter 14
01:41:24.078                             : Chapter 15
01:45:43.337                             : Chapter 16
Bit rate mode                            : VBR
x264 [info]: frame I:1004  Avg QP:15.97  size:197820
x264 [info]: frame P:35706 Avg QP:18.90  size: 71019
x264 [info]: frame B:122022 Avg QP:19.85  size: 31805
x264 [info]: consecutive B-frames:  2.8%  3.9% 10.1% 12.1% 16.1% 44.8%  6.2%  0.7%  1.3%  0.9%  0.4%  0.3%  0.2%  0.2%  0.1%  0.0%  0.1%
x264 [info]: mb I  I16..4: 18.7% 65.2% 16.1%
x264 [info]: mb P  I16..4:  8.0% 22.3%  2.0%  P16..4: 37.8% 13.9%  9.1%  0.3%  0.1%    skip: 6.4%
x264 [info]: mb B  I16..4:  1.5%  3.4%  0.2%  B16..8: 40.6%  8.5%  1.9%  direct:12.3%  skip:31.6%  L0:45.5% L1:42.3% BI:12.1%
x264 [info]: 8x8 transform intra:67.8% inter:65.1%
x264 [info]: direct mvs  spatial:98.5% temporal:1.5%
x264 [info]: coded y,uvDC,uvAC intra: 70.7% 80.3% 55.0% inter: 30.0% 42.2% 15.7%
x264 [info]: i16 v,h,dc,p: 26% 19% 21% 34%
x264 [info]: i8 v,h,dc,ddl,ddr,vr,hd,vl,hu: 12%  9% 17%  9% 11% 11% 10% 10% 10%
x264 [info]: i4 v,h,dc,ddl,ddr,vr,hd,vl,hu: 14% 14% 15%  7% 11% 11% 10%  8%  9%
x264 [info]: i8c dc,h,v,p: 52% 18% 19% 11%
x264 [info]: Weighted P-Frames: Y:3.5% UV:2.1%
x264 [info]: ref P L0: 53.4% 11.6% 24.1% 10.5%  0.4%  0.0%
x264 [info]: ref B L0: 84.4% 13.0%  2.6%
x264 [info]: ref B L1: 94.5%  5.5%
x264 [info]: kb/s:7993.82

Релиз подготовлен для просмотра на Apple TV, iPad, iPhone, iPod Touch.
Для просмотра данного релиза на компьютере с ОС Windows рекомендуется использовать VLC media player

Трекер:  [ 07-Июн-2018 13:06 ]

  

Скачать .torrent

Размер .torrent файла 72 KB


Размер: 7.19 GB
Хэш (hash) релиза: 6564303a73a88744118326223064970ecb4fd4cf

Еще никто не оставлял запись к записи скачать торрент [ATV3] Можно только представить I Can Only Imagine . Будь первым!

!Обратная связь