Studio video | Hime Chen! Otogi Chikku Idol Lilpri | Abandoned Engineering - Season 2

Скачать через торрент Дежурный врач Сезон: 2 Фильм бесплатно в хорошем качестве torrent

Скачивайте на UnionPeer.org фильмы через торрент без регистрации. Новинки кино в хорошем качестве через торрент. На UnionPeer.org можно скачать через торрент фильмы 2014 и 2015 годов. Самые новые фильмы.

Скачать торрент Дежурный врач Сезон: 2 бесплатно через .torrent фильм мультфильм сериал

Статистика раздачи
Размер:  7.53 GB   |    Зарегистрирован:  9 дней   |    .torrent скачан:  75 раз   |   
Раздают:  1  
   
загрузка...
 
Автор Сообщение

Galfimbul

avatar Galfimbul


Дежурный врач - 2

Год выпуска: 2017
Производство: FILM.UA
Жанр: драма, мелодрама, медицина
Продолжительность: ~00:45:00 серия
Субтитры: нет

Режиссёр: Константин Денесюк, Александр Онуфриев

В ролях: Михаил Жонин, Ирина Ткаленко, Руслан Сокольник, Надежда Левченко, Лилия Майборода, Виктория Лушникова, Валентина Вовченко, Леонид Попадько, Елена Новикова, Светлана Князева, Михаил Романов, Богдан Олейник, Екатерина Духленко, Виктория Левченко, Виктор Данилюк, Виктор Полторацкий, Ирина Малыгина, Вероника Лукьяненко, Екатерина Марченко, Артем Каюн, Кристина Мельниченко, Владимир Мельник, Андрей Мерзликин, Николай Калинин, Мария Тарасова, Ева Шевченко-Головко, Вячеслав Стасенко, Алиса Лукшина, Александр Онуфриев, Вероника Братусина

Описание: История четырех врачей, задача которых спасать жизнь пациентам. События происходят в одной из больниц скорой помощи города Киева. Сюда поступают больные с самими разными случаями. Одним нужна срочная медицинская помощь, а кому-то даже и дельный совет умного человека не помешает. Призвание врачей не навредить. Увидим так ли это в максимально приближенных реальных условиях. И каково быть врачом, крутясь во всем этом круговороте драматических событий?

Реклама: Нет.

Кинопоиск
Все раздачи сериала
Sample

Качество: WEBRip - Files-x
Формат: AVI
Видео кодек: XviD
Аудио кодек: AC3
Видео: 720x400 (1.80:1), 25 fps, XviD build 73 ~1550 kbps avg, 0.214 bit/pixel
Аудио: 48.0 kHz, AC3 Dolby Digital, 2/0 (L,R) ch, ~ 192 kbps
Раздача ведётся путём добавления новых серий, при каждом добавлении создаётся новый торрент. Чтобы начать докачку новой серии, пользователям необходимо сделать следующее:

- Остановить скачивание.
- Удалить старый торрент у себя из клиента (старые серии удалять не надо).
- Скачать новый торрент и запустить его у себя в клиенте вместо старого, при этом указать клиенту путь в старую папку куда и должно происходить скачивание новых серий.

Ваш клиент при этом должен произвести хеширование (проверку) старой папки (если не производит сам - помогите ему сделать это), и будет докачивать только те серии которых у вас ещё нет. Старые серии при этом не удаляются, а продолжают раздаваться!
Если вы уже удалили старые серии, то предотвратить повторную закачку старых серий можно, отжав галочку в соответствующих местах при запуске нового торрента. По возможности, желательно не удалять старые серии как можно дольше, чтобы релизер не столько продолжал раздавать старые серии, а смог сконцентрироваться на новых.
General
Complete name : D:\Дежурный врач - сезон 2 (2017).WEB-DLRip.Files-x\01.Дежурный врач - сезон 2 (2017).WEB-DLRip.Files-x.avi
Format : AVI
Format/Info : Audio Video Interleave
File size : 550 MiB
Duration : 44 min 6 s
Overall bit rate : 1 744 kb/s
Writing application : VirtualDubMod 1.5.10.3 | www.virtualdub-fr.org || (build 2550/release)
Writing library : VirtualDubMod build 2550/release

Video
ID : 0
Format : MPEG-4 Visual
Format profile : Advanced [email protected]
Format settings : BVOP1 / Custom Matrix
Format settings, BVOP : 1
Format settings, QPel : No
Format settings, GMC : No warppoints
Format settings, Matrix : Custom
Codec ID : XVID
Codec ID/Hint : XviD
Duration : 44 min 6 s
Bit rate : 1 543 kb/s
Width : 720 pixels
Height : 400 pixels
Display aspect ratio : 16:9
Frame rate : 25.000 FPS
Color space : YUV
Chroma subsampling : 4:2:0
Bit depth : 8 bits
Scan type : Progressive
Compression mode : Lossy
Bits/(Pixel*Frame) : 0.214
Stream size : 487 MiB (88%)
Writing library : XviD 73

Audio
ID : 1
Format : AC-3
Format/Info : Audio Coding 3
Codec ID : 2000
Duration : 44 min 6 s
Bit rate mode : Constant
Bit rate : 192 kb/s
Channel(s) : 2 channels
Channel positions : Front: L R
Sampling rate : 48.0 kHz
Frame rate : 31.250 FPS (1536 SPF)
Bit depth : 16 bits
Compression mode : Lossy
Stream size : 60.6 MiB (11%)
Alignment : Split accross interleaves
Interleave, duration : 40 ms (1.00 video frame)
Interleave, preload duratio : 500 ms
Service kind : Complete Main


Трекер:  [ 13-Июн-2018 11:52 ]

  

Скачать .torrent

Размер .torrent файла 39 KB


Размер: 7.53 GB
Хэш (hash) релиза: e6c9927e2fd262a34ca37baf2f13e7730baba7fe
Подписка на обновления:

bot

Раздача обновлена!
Перекачайте торрент-файл.

bot

Раздача обновлена!
Перекачайте торрент-файл.

bot

Раздача обновлена!
Перекачайте торрент-файл.

Хотите добавить комментарий к записи скачать торрент Дежурный врач Сезон: 2

!Обратная связь