jectigmata | yxcvb567 | Contact & Abuse

Скачать через торрент музыку Сказочник Джима Хенсона Jim Hensons The storyteller бесплатно без регистрации torrent

Статистика раздачи
Размер:  1.14 GB   |    Зарегистрирован:  17 дней   |    .torrent скачан:  23 раза   |   
Раздают:  1  
   
загрузка...
 
Автор Сообщение

Galfimbul

avatar Galfimbul


Сказочник Джима Хенсона |
Jim Henson's The storyteller [3 CD box set]
Жанр: Score
Композитор: Rachel Portman
Год выпуска диска: 2018
Год выпуска фильма: 1987
Страна-производитель диска: USA
Издатель (лейбл): Varese Sarabande
Номер по каталогу: VLE-9225
Аудио кодек: FLAC (*.flac)
Тип рипа: tracks+.cue
Битрейт аудио: lossless
Общая продолжительность: 02:59:56
Источник: Собственный рип
Наличие сканов в содержимом раздачи: да, 600 dpi, jpg
Сканы буклета и бокса в отдельной папке, в папках с дисками сканы только дисков.
Also contains music from: Jim Henson's The Storyteller: Greek Myths.
Limited Edition Of 1500 Copies
Треклист:
1. Main Title (Extended Version) (00:41)
2. Hans My Hedgehog (Suite A) (04:19)
3. Hans My Hedgehog (Suite B) (06:22)
4. A Story Short (Suite A) (06:50)
5. A Story Short (Suite B) (05:19)
6. Fearnot (Suite A) (05:27)
7. Fearnot (Suite B) (06:37)
8. The Luck Child (Suite A) (06:17)
9. The Luck Child (Suite B) (05:09)
10. The Heartless Giant (Suite A) (06:50)
11. The Heartless Giant (Suite B) (06:53)
12. End Title (00:34)
<div class="sp-wrap">
<div class="sp-head folded">Лог создания рипа</div>
<div class="sp-body">

Exact Audio Copy V1.3 from 2. September 2016

EAC extraction logfile from 5. June 2018, 17:47

Rachel Portman / Jim Henson's The StoryTeller CD 1

Used drive : PLEXTOR DVDR PX-L890SA Adapter: 1 ID: 0

Read mode : SecureUtilize accurate stream : YesDefeat audio cache : YesMake use of C2 pointers : No

Read offset correction : 6Overread into Lead-In and Lead-Out : NoFill up missing offset samples with silence : YesDelete leading and trailing silent blocks : NoNull samples used in CRC calculations : YesUsed interface : Native Win32 interface for Win NT & 2000Gap handling : Appended to previous track

Used output format : User Defined EncoderSelected bitrate : 1024 kBit/sQuality : HighAdd ID3 tag : NoCommand line compressor : C:\Program Files\Exact Audio Copy\Flac\flac.exeAdditional command line options : -V -8 -T "Genre=%genre%" -T "Artist=%artist%" -T "Title=%title%" -T "Album=%albumtitle%" -T "Date=%year%" -T "Tracknumber=%tracknr%" -T "Comment=%comment%" %source%

TOC of the extracted CD

Track | Start | Length | Start sector | End sector --------------------------------------------------------- 1 | 0:00.00 | 0:42.72 | 0 | 3221 2 | 0:42.72 | 4:18.46 | 3222 | 22617 3 | 5:01.43 | 6:26.15 | 22618 | 51582 4 | 11:27.58 | 6:46.74 | 51583 | 82106 5 | 18:14.57 | 5:23.62 | 82107 | 106393 6 | 23:38.44 | 5:23.63 | 106394 | 130681 7 | 29:02.32 | 6:41.21 | 130682 | 160777 8 | 35:43.53 | 6:13.52 | 160778 | 188804 9 | 41:57.30 | 5:13.16 | 188805 | 212295 10 | 47:10.46 | 6:46.57 | 212296 | 242802 11 | 53:57.28 | 6:54.54 | 242803 | 273906 12 | 60:52.07 | 0:31.51 | 273907 | 276282

Track 1

Filename F:\torrent\Jim Henson_s The Storyteller_Rachel Portman\CD 1\score\01. Rachel Portman - Main Title (Extended Version).wav

Pre-gap length 0:00:02.00

Peak level 97.6 % Extraction speed 2.8 X Track quality 100.0 % Test CRC 391E5FC5 Copy CRC 391E5FC5 Track not present in AccurateRip database Copy OK

Track 2

Filename F:\torrent\Jim Henson_s The Storyteller_Rachel Portman\CD 1\score\02. Rachel Portman - Hans My Hedgehog (Suite A).wav

Pre-gap length 0:00:03.09

Peak level 74.9 % Extraction speed 4.5 X Track quality 99.9 % Test CRC 9EFD1CFD Copy CRC 9EFD1CFD Track not present in AccurateRip database Copy OK

Track 3

Filename F:\torrent\Jim Henson_s The Storyteller_Rachel Portman\CD 1\score\03. Rachel Portman - Hans My Hedgehog (Suite B).wav

Pre-gap length 0:00:01.58

Peak level 78.7 % Extraction speed 6.0 X Track quality 100.0 % Test CRC 403A3A31 Copy CRC 403A3A31 Track not present in AccurateRip database Copy OK

Track 4

Filename F:\torrent\Jim Henson_s The Storyteller_Rachel Portman\CD 1\score\04. Rachel Portman - A Story Short (Suite A).wav

Pre-gap length 0:00:05.14

Peak level 81.6 % Extraction speed 6.3 X Track quality 99.9 % Test CRC 4F7DB83E Copy CRC 4F7DB83E Track not present in AccurateRip database Copy OK

Track 5

Filename F:\torrent\Jim Henson_s The Storyteller_Rachel Portman\CD 1\score\05. Rachel Portman - A Story Short (Suite B).wav

Pre-gap length 0:00:01.12

Peak level 97.1 % Extraction speed 7.3 X Track quality 100.0 % Test CRC 5EA47BD2 Copy CRC 5EA47BD2 Track not present in AccurateRip database Copy OK

Track 6

Filename F:\torrent\Jim Henson_s The Storyteller_Rachel Portman\CD 1\score\06. Rachel Portman - Fearnot (Suite A).wav

Pre-gap length 0:00:05.10

Peak level 99.7 % Extraction speed 7.8 X Track quality 100.0 % Test CRC D527E206 Copy CRC D527E206 Track not present in AccurateRip database Copy OK

Track 7

Filename F:\torrent\Jim Henson_s The Storyteller_Rachel Portman\CD 1\score\07. Rachel Portman - Fearnot (Suite B).wav

Pre-gap length 0:00:01.59

Peak level 85.8 % Extraction speed 8.4 X Track quality 100.0 % Test CRC 2E48181B Copy CRC 2E48181B Track not present in AccurateRip database Copy OK

Track 8

Filename F:\torrent\Jim Henson_s The Storyteller_Rachel Portman\CD 1\score\08. Rachel Portman - The Luck Child (Suite A).wav

Pre-gap length 0:00:05.12

Peak level 97.1 % Extraction speed 8.9 X Track quality 100.0 % Test CRC 39154471 Copy CRC 39154471 Track not present in AccurateRip database Copy OK

Track 9

Filename F:\torrent\Jim Henson_s The Storyteller_Rachel Portman\CD 1\score\09. Rachel Portman - The Luck Child (Suite B).wav

Pre-gap length 0:00:01.50

Peak level 97.1 % Extraction speed 9.2 X Track quality 100.0 % Test CRC 9DB86D13 Copy CRC 9DB86D13 Track not present in AccurateRip database Copy OK

Track 10

Filename F:\torrent\Jim Henson_s The Storyteller_Rachel Portman\CD 1\score\10. Rachel Portman - The Heartless Giant (Suite A).wav

Pre-gap length 0:00:05.13

Peak level 88.8 % Extraction speed 9.9 X Track quality 100.0 % Test CRC B5987998 Copy CRC B5987998 Track not present in AccurateRip database Copy OK

Track 11

Filename F:\torrent\Jim Henson_s The Storyteller_Rachel Portman\CD 1\score\11. Rachel Portman - The Heartless Giant (Suite B).wav

Pre-gap length 0:00:01.57

Peak level 84.9 % Extraction speed 10.5 X Track quality 100.0 % Test CRC D2191041 Copy CRC D2191041 Track not present in AccurateRip database Copy OK

Track 12

Filename F:\torrent\Jim Henson_s The Storyteller_Rachel Portman\CD 1\score\12. Rachel Portman - End Title.wav

Pre-gap length 0:00:02.60

Peak level 88.5 % Extraction speed 5.2 X Track quality 100.0 % Test CRC 69F1AE59 Copy CRC 69F1AE59 Track not present in AccurateRip database Copy OK

None of the tracks are present in the AccurateRip database

No errors occurred

End of status report

---- CUETools DB Plugin V2.1.6

[CTDB TOCID: g7olskNTMTyk1VB5C0hFQ7DXw9Q-] foundSubmit result: g7olskNTMTyk1VB5C0hFQ7DXw9Q- has been confirmedTrack | CTDB Status 1 | (7/7) Accurately ripped 2 | (7/7) Accurately ripped 3 | (7/7) Accurately ripped 4 | (7/7) Accurately ripped 5 | (7/7) Accurately ripped 6 | (7/7) Accurately ripped 7 | (7/7) Accurately ripped 8 | (7/7) Accurately ripped 9 | (7/7) Accurately ripped 10 | (7/7) Accurately ripped 11 | (7/7) Accurately ripped 12 | (7/7) Accurately ripped

==== Log checksum F718E78172CEA0611851B4C0C5D611B794CF61668D49CF010A47B4ED0B6A2B3D ====
REM GENRE SoundtrackREM DATE 2018REM DISCID 9D0E630CREM COMMENT "ExactAudioCopy v1.3"PERFORMER "Rachel Portman"TITLE "Jim Henson's The StoryTeller CD 1"REM COMPOSER ""FILE "01. Rachel Portman - Main Title (Extended Version).wav" WAVE TRACK 01 AUDIO TITLE "Main Title (Extended Version)" PERFORMER "Rachel Portman" REM COMPOSER "" ISRC GB6LT1800222 INDEX 01 00:00:00 TRACK 02 AUDIO TITLE "Hans My Hedgehog (Suite A)" PERFORMER "Rachel Portman" REM COMPOSER "" ISRC GB6LT1800223 INDEX 00 00:39:63FILE "02. Rachel Portman - Hans My Hedgehog (Suite A).wav" WAVE INDEX 01 00:00:00 TRACK 03 AUDIO TITLE "Hans My Hedgehog (Suite B)" PERFORMER "Rachel Portman" REM COMPOSER "" ISRC GB6LT1800224 INDEX 00 04:16:63FILE "03. Rachel Portman - Hans My Hedgehog (Suite B).wav" WAVE INDEX 01 00:00:00 TRACK 04 AUDIO TITLE "A Story Short (Suite A)" PERFORMER "Rachel Portman" REM COMPOSER "" ISRC GB6LT1800225 INDEX 00 06:21:01FILE "04. Rachel Portman - A Story Short (Suite A).wav" WAVE INDEX 01 00:00:00 TRACK 05 AUDIO TITLE "A Story Short (Suite B)" PERFORMER "Rachel Portman" REM COMPOSER "" ISRC GB6LT1800226 INDEX 00 06:45:62FILE "05. Rachel Portman - A Story Short (Suite B).wav" WAVE INDEX 01 00:00:00 TRACK 06 AUDIO TITLE "Fearnot (Suite A)" PERFORMER "Rachel Portman" REM COMPOSER "" ISRC GB6LT1800227 INDEX 00 05:18:52FILE "06. Rachel Portman - Fearnot (Suite A).wav" WAVE INDEX 01 00:00:00 TRACK 07 AUDIO TITLE "Fearnot (Suite B)" PERFORMER "Rachel Portman" REM COMPOSER "" ISRC GB6LT1800228 INDEX 00 05:22:04FILE "07. Rachel Portman - Fearnot (Suite B).wav" WAVE INDEX 01 00:00:00 TRACK 08 AUDIO TITLE "The Luck Child (Suite A)" PERFORMER "Rachel Portman" REM COMPOSER "" ISRC GB6LT1800229 INDEX 00 06:36:09FILE "08. Rachel Portman - The Luck Child (Suite A).wav" WAVE INDEX 01 00:00:00 TRACK 09 AUDIO TITLE "The Luck Child (Suite B)" PERFORMER "Rachel Portman" REM COMPOSER "" ISRC GB6LT1800230 INDEX 00 06:12:02FILE "09. Rachel Portman - The Luck Child (Suite B).wav" WAVE INDEX 01 00:00:00 TRACK 10 AUDIO TITLE "The Heartless Giant (Suite A)" PERFORMER "Rachel Portman" REM COMPOSER "" ISRC GB6LT1800231 INDEX 00 05:08:03FILE "10. Rachel Portman - The Heartless Giant (Suite A).wav" WAVE INDEX 01 00:00:00 TRACK 11 AUDIO TITLE "The Heartless Giant (Suite B)" PERFORMER "Rachel Portman" REM COMPOSER "" ISRC GB6LT1800232 INDEX 00 06:45:00FILE "11. Rachel Portman - The Heartless Giant (Suite B).wav" WAVE INDEX 01 00:00:00 TRACK 12 AUDIO TITLE "End Title" PERFORMER "Rachel Portman" REM COMPOSER "" ISRC GB6LT1800233 INDEX 00 06:51:69FILE "12. Rachel Portman - End Title.wav" WAVE INDEX 01 00:00:00
</div>
</div>
Треклист:
1. Main Title with Narration (00:41) (featuring John Hurt)
2. The Soldier and Death (Suite A) (05:04)
3. The Soldier and Death (Suite B) (07:59)
4. The True Bride (Suite A) (05:41)
5. The True Bride (Suite B) (06:18)
6. The Three Ravens (Suite A) (07:34)
7. The Three Ravens (Suite B) (07:59)
8. Sapsorrow (Suite A) (05:18)
9. Sapsorrow (Suite B) (06:09)
10. Main Title (Short Version) (00:37)
11. Unused Bumper A (00:12)
12. Unused Bumper B (00:10)
<div class="sp-wrap">
<div class="sp-head folded">Лог создания рипа</div>
<div class="sp-body">

Exact Audio Copy V1.3 from 2. September 2016

EAC extraction logfile from 5. June 2018, 20:22

Rachel Portman / Jim Henson's The StoryTeller CD 2

Used drive : PLEXTOR DVDR PX-L890SA Adapter: 1 ID: 0

Read mode : SecureUtilize accurate stream : YesDefeat audio cache : YesMake use of C2 pointers : No

Read offset correction : 6Overread into Lead-In and Lead-Out : NoFill up missing offset samples with silence : YesDelete leading and trailing silent blocks : NoNull samples used in CRC calculations : YesUsed interface : Native Win32 interface for Win NT & 2000Gap handling : Appended to previous track

Used output format : User Defined EncoderSelected bitrate : 1024 kBit/sQuality : HighAdd ID3 tag : NoCommand line compressor : C:\Program Files\Exact Audio Copy\Flac\flac.exeAdditional command line options : -V -8 -T "Genre=%genre%" -T "Artist=%artist%" -T "Title=%title%" -T "Album=%albumtitle%" -T "Date=%year%" -T "Tracknumber=%tracknr%" -T "Comment=%comment%" %source%

TOC of the extracted CD

Track | Start | Length | Start sector | End sector --------------------------------------------------------- 1 | 0:00.00 | 0:43.23 | 0 | 3247 2 | 0:43.23 | 5:02.62 | 3248 | 25959 3 | 5:46.10 | 8:03.07 | 25960 | 62191 4 | 13:49.17 | 5:38.32 | 62192 | 87573 5 | 19:27.49 | 6:22.28 | 87574 | 116251 6 | 25:50.02 | 7:31.25 | 116252 | 150101 7 | 33:21.27 | 8:02.38 | 150102 | 186289 8 | 41:23.65 | 5:14.07 | 186290 | 209846 9 | 46:37.72 | 6:07.68 | 209847 | 237439 10 | 52:45.65 | 0:35.62 | 237440 | 240126 11 | 53:21.52 | 0:10.53 | 240127 | 240929 12 | 53:32.30 | 0:09.45 | 240930 | 241649

Track 1

Filename F:\torrent\Jim Henson_s The Storyteller_Rachel Portman\CD 2\score\01. Rachel Portman - Main Title with Narration (featuring John Hurt).wav

Pre-gap length 0:00:02.00

Peak level 60.6 % Extraction speed 1.0 X Track quality 100.0 % Test CRC F2742F93 Copy CRC F2742F93 Track not present in AccurateRip database Copy OK

Track 2

Filename F:\torrent\Jim Henson_s The Storyteller_Rachel Portman\CD 2\score\02. Rachel Portman - The Soldier and Death- (Suite A).wav

Pre-gap length 0:00:03.25

Peak level 97.1 % Extraction speed 1.9 X Track quality 100.0 % Test CRC CEC54F53 Copy CRC CEC54F53 Track not present in AccurateRip database Copy OK

Track 3

Filename F:\torrent\Jim Henson_s The Storyteller_Rachel Portman\CD 2\score\03. Rachel Portman - The Soldier and Death- (Suite B).wav

Pre-gap length 0:00:01.50

Peak level 97.1 % Extraction speed 2.3 X Track quality 100.0 % Test CRC B2225D14 Copy CRC B2225D14 Track not present in AccurateRip database Copy OK

Track 4

Filename F:\torrent\Jim Henson_s The Storyteller_Rachel Portman\CD 2\score\04. Rachel Portman - The True Bride- (Suite A).wav

Pre-gap length 0:00:05.05

Peak level 96.0 % Extraction speed 2.6 X Track quality 100.0 % Test CRC A9D9C672 Copy CRC A9D9C672 Track not present in AccurateRip database Copy OK

Track 5

Filename F:\torrent\Jim Henson_s The Storyteller_Rachel Portman\CD 2\score\05. Rachel Portman - The True Bride- (Suite B).wav

Pre-gap length 0:00:01.48

Peak level 77.0 % Extraction speed 2.8 X Track quality 100.0 % Test CRC F227E659 Copy CRC F227E659 Track not present in AccurateRip database Copy OK

Track 6

Filename F:\torrent\Jim Henson_s The Storyteller_Rachel Portman\CD 2\score\06. Rachel Portman - The Three Ravens- (Suite A).wav

Pre-gap length 0:00:05.11

Peak level 96.0 % Extraction speed 3.1 X Track quality 100.0 % Test CRC 47E6C49C Copy CRC 47E6C49C Track not present in AccurateRip database Copy OK

Track 7

Filename F:\torrent\Jim Henson_s The Storyteller_Rachel Portman\CD 2\score\07. Rachel Portman - The Three Ravens- (Suite B).wav

Pre-gap length 0:00:02.19

Peak level 96.0 % Extraction speed 3.4 X Track quality 100.0 % Test CRC 1F6B99D1 Copy CRC 1F6B99D1 Track not present in AccurateRip database Copy OK

Track 8

Filename F:\torrent\Jim Henson_s The Storyteller_Rachel Portman\CD 2\score\08. Rachel Portman - Sapsorrow- (Suite A).wav

Pre-gap length 0:00:05.25

Peak level 67.0 % Extraction speed 3.4 X Track quality 100.0 % Test CRC FCC2BCE0 Copy CRC FCC2BCE0 Track not present in AccurateRip database Copy OK

Track 9

Filename F:\torrent\Jim Henson_s The Storyteller_Rachel Portman\CD 2\score\09. Rachel Portman - Sapsorrow- (Suite B).wav

Pre-gap length 0:00:00.71

Peak level 68.8 % Extraction speed 3.7 X Track quality 100.0 % Test CRC D0F666AC Copy CRC D0F666AC Track not present in AccurateRip database Copy OK

Track 10

Filename F:\torrent\Jim Henson_s The Storyteller_Rachel Portman\CD 2\score\10. Rachel Portman - Main Title (Short Version).wav

Pre-gap length 0:00:05.29

Peak level 85.5 % Extraction speed 1.3 X Track quality 99.7 % Test CRC 5E85FEDA Copy CRC 5E85FEDA Track not present in AccurateRip database Copy OK

Track 11

Filename F:\torrent\Jim Henson_s The Storyteller_Rachel Portman\CD 2\score\11. Rachel Portman - Unused Bumper A.wav

Pre-gap length 0:00:03.30

Peak level 42.3 % Extraction speed 0.9 X Track quality 100.0 % Test CRC BBBEF750 Copy CRC BBBEF750 Track not present in AccurateRip database Copy OK

Track 12

Filename F:\torrent\Jim Henson_s The Storyteller_Rachel Portman\CD 2\score\12. Rachel Portman - Unused Bumper B.wav

Pre-gap length 0:00:01.24

Peak level 39.8 % Extraction speed 0.4 X Track quality 98.8 % Test CRC 9EF10A28 Copy CRC 9EF10A28 Track not present in AccurateRip database Copy OK

None of the tracks are present in the AccurateRip database

No errors occurred

End of status report

---- CUETools DB Plugin V2.1.6

[CTDB TOCID: JWq9zaTIEvu1OkfI_RBzvi6m1RY-] foundSubmit result: JWq9zaTIEvu1OkfI_RBzvi6m1RY- has been confirmedTrack | CTDB Status 1 | (6/6) Accurately ripped 2 | (6/6) Accurately ripped 3 | (6/6) Accurately ripped 4 | (6/6) Accurately ripped 5 | (6/6) Accurately ripped 6 | (6/6) Accurately ripped 7 | (6/6) Accurately ripped 8 | (6/6) Accurately ripped 9 | (6/6) Accurately ripped 10 | (6/6) Accurately ripped 11 | (6/6) Accurately ripped 12 | (6/6) Accurately ripped

==== Log checksum 3E38DFBE293A00E9000DDADD3BCF407A2E489E5F215A6CBF8974DAC59F9DE1BB ====
REM GENRE SoundtrackREM DATE 2018REM DISCID 9A0C960CREM COMMENT "ExactAudioCopy v1.3"PERFORMER "Rachel Portman"TITLE "Jim Henson's The StoryTeller CD 2"REM COMPOSER ""FILE "01. Rachel Portman - Main Title with Narration (featuring John Hurt).wav" WAVE TRACK 01 AUDIO TITLE "Main Title with Narration (featuring John Hurt) " PERFORMER "Rachel Portman" REM COMPOSER "" ISRC GB6LT1800234 INDEX 01 00:00:00 TRACK 02 AUDIO TITLE "The Soldier and Death: (Suite A)" PERFORMER "Rachel Portman" REM COMPOSER "" ISRC GB6LT1800235 INDEX 00 00:39:73FILE "02. Rachel Portman - The Soldier and Death- (Suite A).wav" WAVE INDEX 01 00:00:00 TRACK 03 AUDIO TITLE "The Soldier and Death: (Suite B)" PERFORMER "Rachel Portman" REM COMPOSER "" ISRC GB6LT1800236 INDEX 00 05:01:12FILE "03. Rachel Portman - The Soldier and Death- (Suite B).wav" WAVE INDEX 01 00:00:00 TRACK 04 AUDIO TITLE "The True Bride: (Suite A)" PERFORMER "Rachel Portman" REM COMPOSER "" ISRC GB6LT1800237 INDEX 00 07:58:02FILE "04. Rachel Portman - The True Bride- (Suite A).wav" WAVE INDEX 01 00:00:00 TRACK 05 AUDIO TITLE "The True Bride: (Suite B)" PERFORMER "Rachel Portman" REM COMPOSER "" ISRC GB6LT1800238 INDEX 00 05:36:59FILE "05. Rachel Portman - The True Bride- (Suite B).wav" WAVE INDEX 01 00:00:00 TRACK 06 AUDIO TITLE "The Three Ravens: (Suite A)" PERFORMER "Rachel Portman" REM COMPOSER "" ISRC GB6LT1800239 INDEX 00 06:17:17FILE "06. Rachel Portman - The Three Ravens- (Suite A).wav" WAVE INDEX 01 00:00:00 TRACK 07 AUDIO TITLE "The Three Ravens: (Suite B)" PERFORMER "Rachel Portman" REM COMPOSER "" ISRC GB6LT1800240 INDEX 00 07:29:06FILE "07. Rachel Portman - The Three Ravens- (Suite B).wav" WAVE INDEX 01 00:00:00 TRACK 08 AUDIO TITLE "Sapsorrow: (Suite A)" PERFORMER "Rachel Portman" REM COMPOSER "" ISRC GB6LT1800241 INDEX 00 07:57:13FILE "08. Rachel Portman - Sapsorrow- (Suite A).wav" WAVE INDEX 01 00:00:00 TRACK 09 AUDIO TITLE "Sapsorrow: (Suite B)" PERFORMER "Rachel Portman" REM COMPOSER "" ISRC GB6LT1800242 INDEX 00 05:13:11FILE "09. Rachel Portman - Sapsorrow- (Suite B).wav" WAVE INDEX 01 00:00:00 TRACK 10 AUDIO TITLE "Main Title (Short Version)" PERFORMER "Rachel Portman" REM COMPOSER "" ISRC GB6LT1800243 INDEX 00 06:02:39FILE "10. Rachel Portman - Main Title (Short Version).wav" WAVE INDEX 01 00:00:00 TRACK 11 AUDIO TITLE "Unused Bumper A" PERFORMER "Rachel Portman" REM COMPOSER "" ISRC GB6LT1800244 INDEX 00 00:32:32FILE "11. Rachel Portman - Unused Bumper A.wav" WAVE INDEX 01 00:00:00 TRACK 12 AUDIO TITLE "Unused Bumper B" PERFORMER "Rachel Portman" REM COMPOSER "" ISRC GB6LT1800245 INDEX 00 00:09:29FILE "12. Rachel Portman - Unused Bumper B.wav" WAVE INDEX 01 00:00:00
</div>
</div>
Треклист:
1. The Storyteller: Greek Myths Main Titles (UK Version) (00:39)
2. Theseus & The Minotaur (Suite A) (07:23)
3. Theseus & The Minotaur (Suite B) (09:13)
4. Perseus & The Gorgon (Suite A) (07:00)
5. Perseus & The Gorgon (Suite B) (07:21)
6. Daedalus & Icarus (Suite A) (06:42)
7. Daedalus & Icarus (Suite B) (07:18)
8. Orpheus & Eurydice (Suite A) (08:47)
9. Orpheus & Eurydice (Suite B) (06:57)
10. The Storyteller: Greek Myths Main Titles (US Version) (00:33)
Bonus Tracks:
11. Theseus (Suite) (01:34)
12. Orpheus (Suite) (01:29)
<div class="sp-wrap">
<div class="sp-head folded">Лог создания рипа</div>
<div class="sp-body">

Exact Audio Copy V1.3 from 2. September 2016

EAC extraction logfile from 5. June 2018, 22:10

Rachel Portman / Jim Henson's The StoryTeller CD 3

Used drive : PLEXTOR DVDR PX-L890SA Adapter: 1 ID: 0

Read mode : SecureUtilize accurate stream : YesDefeat audio cache : YesMake use of C2 pointers : No

Read offset correction : 6Overread into Lead-In and Lead-Out : NoFill up missing offset samples with silence : YesDelete leading and trailing silent blocks : NoNull samples used in CRC calculations : YesUsed interface : Native Win32 interface for Win NT & 2000Gap handling : Appended to previous track

Used output format : User Defined EncoderSelected bitrate : 1024 kBit/sQuality : HighAdd ID3 tag : NoCommand line compressor : C:\Program Files\Exact Audio Copy\Flac\flac.exeAdditional command line options : -V -8 -T "Genre=%genre%" -T "Artist=%artist%" -T "Title=%title%" -T "Album=%albumtitle%" -T "Date=%year%" -T "Tracknumber=%tracknr%" -T "Comment=%comment%" %source%

TOC of the extracted CD

Track | Start | Length | Start sector | End sector --------------------------------------------------------- 1 | 0:00.00 | 0:43.27 | 0 | 3251 2 | 0:43.27 | 7:20.25 | 3252 | 36276 3 | 8:03.52 | 9:16.32 | 36277 | 78008 4 | 17:20.09 | 6:57.21 | 78009 | 109304 5 | 24:17.30 | 7:24.64 | 109305 | 142668 6 | 31:42.19 | 6:37.50 | 142669 | 172493 7 | 38:19.69 | 7:22.74 | 172494 | 205717 8 | 45:42.68 | 8:43.62 | 205718 | 245004 9 | 54:26.55 | 6:57.52 | 245005 | 276331 10 | 61:24.32 | 0:37.35 | 276332 | 279141 11 | 62:01.67 | 1:34.31 | 279142 | 286222 12 | 63:36.23 | 1:23.66 | 286223 | 292513

Track 1

Filename F:\torrent\Jim Henson_s The Storyteller_Rachel Portman\CD 3\score\01. Rachel Portman - The Storyteller- Greek Myths Main Titles (UK Version).wav

Pre-gap length 0:00:02.00

Peak level 82.3 % Extraction speed 2.9 X Track quality 100.0 % Test CRC B6F1EBD8 Copy CRC B6F1EBD8 Track not present in AccurateRip database Copy OK

Track 2

Filename F:\torrent\Jim Henson_s The Storyteller_Rachel Portman\CD 3\score\02. Rachel Portman - Theseus & The Minotaur (Suite A).wav

Pre-gap length 0:00:05.53

Peak level 96.4 % Extraction speed 5.7 X Track quality 100.0 % Test CRC B01E8730 Copy CRC B01E8730 Track not present in AccurateRip database Copy OK

Track 3

Filename F:\torrent\Jim Henson_s The Storyteller_Rachel Portman\CD 3\score\03. Rachel Portman - Theseus & The Minotaur (Suite B).wav

Pre-gap length 0:00:02.26

Peak level 96.4 % Extraction speed 6.5 X Track quality 99.9 % Test CRC 0F8A3712 Copy CRC 0F8A3712 Track not present in AccurateRip database Copy OK

Track 4

Filename F:\torrent\Jim Henson_s The Storyteller_Rachel Portman\CD 3\score\04. Rachel Portman - Perseus & The Gorgon (Suite A).wav

Peak level 92.8 % Extraction speed 7.6 X Track quality 100.0 % Test CRC EFDBE6C2 Copy CRC EFDBE6C2 Track not present in AccurateRip database Copy OK

Track 5

Filename F:\torrent\Jim Henson_s The Storyteller_Rachel Portman\CD 3\score\05. Rachel Portman - Perseus & The Gorgon- (Suite B).wav

Pre-gap length 0:00:01.63

Peak level 86.8 % Extraction speed 7.8 X Track quality 99.9 % Test CRC B9353035 Copy CRC B9353035 Track not present in AccurateRip database Copy OK

Track 6

Filename F:\torrent\Jim Henson_s The Storyteller_Rachel Portman\CD 3\score\06. Rachel Portman - Daedalus & Icarus (Suite A).wav

Pre-gap length 0:00:05.32

Peak level 92.2 % Extraction speed 8.9 X Track quality 100.0 % Test CRC 3B60532C Copy CRC 3B60532C Track not present in AccurateRip database Copy OK

Track 7

Filename F:\torrent\Jim Henson_s The Storyteller_Rachel Portman\CD 3\score\07. Rachel Portman - Daedalus & Icarus (Suite B).wav

Pre-gap length 0:00:00.63

Peak level 79.1 % Extraction speed 9.6 X Track quality 100.0 % Test CRC AE06B905 Copy CRC AE06B905 Track not present in AccurateRip database Copy OK

Track 8

Filename F:\torrent\Jim Henson_s The Storyteller_Rachel Portman\CD 3\score\08. Rachel Portman - Orpheus & Eurydice (Suite A).wav

Pre-gap length 0:00:05.17

Peak level 92.2 % Extraction speed 10.3 X Track quality 100.0 % Test CRC 4A7C99A6 Copy CRC 4A7C99A6 Track not present in AccurateRip database Copy OK

Track 9

Filename F:\torrent\Jim Henson_s The Storyteller_Rachel Portman\CD 3\score\09. Rachel Portman - Orpheus & Eurydice (Suite B).wav

Pre-gap length 0:00:01.61

Peak level 92.5 % Extraction speed 10.7 X Track quality 100.0 % Test CRC A00D2CCD Copy CRC A00D2CCD Track not present in AccurateRip database Copy OK

Track 10

Filename F:\torrent\Jim Henson_s The Storyteller_Rachel Portman\CD 3\score\10. Rachel Portman - Main Titles (US Version).wav

Pre-gap length 0:00:01.53

Peak level 93.8 % Extraction speed 5.8 X Track quality 100.0 % Test CRC 126DADB3 Copy CRC 126DADB3 Track not present in AccurateRip database Copy OK

Track 11

Filename F:\torrent\Jim Henson_s The Storyteller_Rachel Portman\CD 3\score\11. Rachel Portman - Theseus Bonus (Material Suite).wav

Pre-gap length 0:00:05.23

Peak level 96.4 % Extraction speed 8.4 X Track quality 100.0 % Test CRC 1BA14245 Copy CRC 1BA14245 Track not present in AccurateRip database Copy OK

Track 12

Filename F:\torrent\Jim Henson_s The Storyteller_Rachel Portman\CD 3\score\12. Rachel Portman - Orpheus Bonus (Material Suite).wav

Pre-gap length 0:00:05.25

Peak level 72.5 % Extraction speed 8.2 X Track quality 100.0 % Test CRC 06069B90 Copy CRC 06069B90 Track not present in AccurateRip database Copy OK

None of the tracks are present in the AccurateRip database

No errors occurred

End of status report

---- CUETools DB Plugin V2.1.6

[CTDB TOCID: ClyFCtakwfNEnr_JPKb6Kj2nFYY-] foundSubmit result: ClyFCtakwfNEnr_JPKb6Kj2nFYY- has been confirmedTrack | CTDB Status 1 | (5/5) Accurately ripped 2 | (5/5) Accurately ripped 3 | (5/5) Accurately ripped 4 | (5/5) Accurately ripped 5 | (5/5) Accurately ripped 6 | (5/5) Accurately ripped 7 | (5/5) Accurately ripped 8 | (5/5) Accurately ripped 9 | (5/5) Accurately ripped 10 | (5/5) Accurately ripped 11 | (5/5) Accurately ripped 12 | (5/5) Accurately ripped

==== Log checksum 363230207A859FAB3B41BC2E387992E226C3B3BAC36FCA6DCF4B2A9FEE3B4BFE ====
REM GENRE SoundtrackREM DATE 2018REM DISCID A80F3C0CREM COMMENT "ExactAudioCopy v1.3"PERFORMER "Rachel Portman"TITLE "Jim Henson's The StoryTeller CD 3"REM COMPOSER ""FILE "01. Rachel Portman - The Storyteller- Greek Myths Main Titles (UK Version).wav" WAVE TRACK 01 AUDIO TITLE "The Storyteller: Greek Myths Main Titles (UK Version)" PERFORMER "Rachel Portman" REM COMPOSER "" ISRC GB6LT1800246 INDEX 01 00:00:00 TRACK 02 AUDIO TITLE "Theseus & The Minotaur (Suite A)" PERFORMER "Rachel Portman" REM COMPOSER "" ISRC GB6LT1800247 INDEX 00 00:37:49FILE "02. Rachel Portman - Theseus & The Minotaur (Suite A).wav" WAVE INDEX 01 00:00:00 TRACK 03 AUDIO TITLE "Theseus & The Minotaur (Suite B)" PERFORMER "Rachel Portman" REM COMPOSER "" ISRC GB6LT1800248 INDEX 00 07:17:74FILE "03. Rachel Portman - Theseus & The Minotaur (Suite B).wav" WAVE INDEX 01 00:00:00FILE "04. Rachel Portman - Perseus & The Gorgon (Suite A).wav" WAVE TRACK 04 AUDIO TITLE "Perseus & The Gorgon (Suite A)" PERFORMER "Rachel Portman" REM COMPOSER "" ISRC GB6LT1800249 INDEX 01 00:00:00 TRACK 05 AUDIO TITLE "Perseus & The Gorgon: (Suite B)" PERFORMER "Rachel Portman" REM COMPOSER "" ISRC GB6LT1800250 INDEX 00 06:55:33FILE "05. Rachel Portman - Perseus & The Gorgon- (Suite B).wav" WAVE INDEX 01 00:00:00 TRACK 06 AUDIO TITLE "Daedalus & Icarus (Suite A)" PERFORMER "Rachel Portman" REM COMPOSER "" ISRC GB6LT1800251 INDEX 00 07:19:32FILE "06. Rachel Portman - Daedalus & Icarus (Suite A).wav" WAVE INDEX 01 00:00:00 TRACK 07 AUDIO TITLE "Daedalus & Icarus (Suite B)" PERFORMER "Rachel Portman" REM COMPOSER "" ISRC GB6LT1800252 INDEX 00 06:36:62FILE "07. Rachel Portman - Daedalus & Icarus (Suite B).wav" WAVE INDEX 01 00:00:00 TRACK 08 AUDIO TITLE "Orpheus & Eurydice (Suite A)" PERFORMER "Rachel Portman" REM COMPOSER "" ISRC GB6LT1800253 INDEX 00 07:17:57FILE "08. Rachel Portman - Orpheus & Eurydice (Suite A).wav" WAVE INDEX 01 00:00:00 TRACK 09 AUDIO TITLE "Orpheus & Eurydice (Suite B)" PERFORMER "Rachel Portman" REM COMPOSER "" ISRC GB6LT1800254 INDEX 00 08:42:01FILE "09. Rachel Portman - Orpheus & Eurydice (Suite B).wav" WAVE INDEX 01 00:00:00 TRACK 10 AUDIO TITLE "Main Titles (US Version)" PERFORMER "Rachel Portman" REM COMPOSER "" ISRC GB6LT1800255 INDEX 00 06:55:74FILE "10. Rachel Portman - Main Titles (US Version).wav" WAVE INDEX 01 00:00:00 TRACK 11 AUDIO TITLE "Theseus Bonus (Material Suite)" PERFORMER "Rachel Portman" REM COMPOSER "" ISRC GB6LT1800256 INDEX 00 00:32:12FILE "11. Rachel Portman - Theseus Bonus (Material Suite).wav" WAVE INDEX 01 00:00:00 TRACK 12 AUDIO TITLE "Orpheus Bonus (Material Suite)" PERFORMER "Rachel Portman" REM COMPOSER "" ISRC GB6LT1800257 INDEX 00 01:29:06FILE "12. Rachel Portman - Orpheus Bonus (Material Suite).wav" WAVE INDEX 01 00:00:00
</div>
</div>


Трекер:  [ 07-Июн-2018 11:06 ]

  

Скачать .torrent

Размер .torrent файла 17 KB


Размер: 1.14 GB
Хэш (hash) релиза: f43e78eb106138bd1adaee1a368149af6afa689a

Еще никто не оставлял запись к записи скачать торрент Сказочник Джима Хенсона Jim Hensons The storyteller . Будь первым!

!Обратная связь