All Releases by S Pirate | Monthly Music Series | Gotta tech problem? Post it here

Скачать через торрент Zомбоящик Фильм бесплатно в хорошем качестве torrent

Скачивайте на UnionPeer.org фильмы через торрент без регистрации. Новинки кино в хорошем качестве через торрент. На UnionPeer.org можно скачать через торрент фильмы 2014 и 2015 годов. Самые новые фильмы.

Скачать торрент Zомбоящик бесплатно через .torrent фильм мультфильм сериал

Статистика раздачи
Размер:  1.09 GB   |    Зарегистрирован:  17 дней   |    .torrent скачан:  61 раз   |   
Раздают:  1  
   
загрузка...
 
Автор Сообщение

Galfimbul

avatar Galfimbul


Zомбоящик

Жанр: комедия
Год выпуска: 2018
Продолжительность: 00:59:19

Режиссёр: Константин Смирнов

В ролях: Гарик Харламов, Гарик Мартиросян, Тимур Батрутдинов, Александр Ревва, Павел Воля, Екатерина Варнава, Андрей Скороход, Роман Юнусов, Ольга Бузова, Анна Хилькевич
Описание: Во времена Шекспира весь мир был театром, в наши же дни его захватил зомбоящик. 30 звезд ТНТ. Все жанры: драма, комедия, боевик, триллер, научная фантастика, байопик, эротика и экспериментальное кино. От бессмысленного и беспощадного стеба не скроется никто: ни футболисты, ни геи, ни чиновники, ни священники, ни расисты, ни онанисты! Герои «Zомбоящика» интригуют, дразнят, издеваются и смеются вместе со зрителями, доказывая, что вся наша жизнь и есть «Zомбоящик».

Sample

Качество видео: WEB-DLRip
Формат видео: AVI

Видео: 720x400 (1.80:1), 25 fps, XviD build 73 ~2236 kbps avg, 0.31 bit/pixel
Аудио: 48 kHz, AC3 Dolby Digital, 3/2 (L,C,R,l,r) + LFE ch, ~384 kbps
General
Complete name : D:\Zомбоящик 2018.avi
Format : AVI
Format/Info : Audio Video Interleave
File size : 1.09 GiB
Duration : 59 min 19 s
Overall bit rate : 2 631 kb/s
Writing application : VirtualDubMod 1.5.10.3 | www.virtualdub-fr.org || (build 2550/release)
Writing library : VirtualDubMod build 2550/release

Video
ID : 0
Format : MPEG-4 Visual
Format profile : Advanced [email protected]
Format settings : BVOP2
Format settings, BVOP : 2
Format settings, QPel : No
Format settings, GMC : No warppoints
Format settings, Matrix : Default (MPEG)
Codec ID : XVID
Codec ID/Hint : XviD
Duration : 59 min 19 s
Bit rate : 2 237 kb/s
Width : 720 pixels
Height : 400 pixels
Display aspect ratio : 16:9
Frame rate : 25.000 FPS
Color space : YUV
Chroma subsampling : 4:2:0
Bit depth : 8 bits
Scan type : Progressive
Compression mode : Lossy
Bits/(Pixel*Frame) : 0.311
Stream size : 949 MiB (85%)
Writing library : XviD 73

Audio
ID : 1
Format : AC-3
Format/Info : Audio Coding 3
Codec ID : 2000
Duration : 59 min 19 s
Bit rate mode : Constant
Bit rate : 384 kb/s
Channel(s) : 6 channels
Channel positions : Front: L C R, Side: L R, LFE
Sampling rate : 48.0 kHz
Frame rate : 31.250 FPS (1536 SPF)
Bit depth : 16 bits
Compression mode : Lossy
Stream size : 163 MiB (15%)
Alignment : Split accross interleaves
Interleave, duration : 40 ms (1.00 video frame)
Interleave, preload duratio : 500 ms
Service kind : Complete Main


Трекер:  [ 07-Июн-2018 10:54 ]

  

Скачать .torrent

Размер .torrent файла 11 KB


Размер: 1.09 GB
Хэш (hash) релиза: aa0c81a50d8137e1d0bfe16826318f64dea89339
Подписка на обновления:

Торренты, похожие на Zомбоящик скачать торрент

Форум Название Автор Размер S L Добавлен
Российские фильмы до 2016 ·· Zомбоящик (Константин Смирнов) [2018, Россия, комедия, WEB-DL 1080p] Original Rus Galfimbul 24652575032.3 GB 0 0 1528457423

14:30

8-Июн-18

Российские фильмы до 2016 ·· Zомбоящик (Константин Смирнов) [2018, комедия, WEB-DLRip] Galfimbul 777641984742 MB 0 0 1528399448

22:24

7-Июн-18

Российские фильмы до 2016 ·· Zомбоящик (Константин Смирнов) [2018, комедия, WEB-DLRip-AVC] Galfimbul 782706326746 MB 0 0 1528331059

03:24

7-Июн-18

Российские фильмы 2016-2018 (Новинки русского кино) ·· Zомбоящик (Константин Смирнов) [2018 г., Комедия, WEB-DL 720p] Galfimbul 25943633342.42 GB 0 0 1527837318

10:15

1-Июн-18

Российские фильмы 2016-2018 (Новинки русского кино) ·· Zомбоящик (Константин Смирнов) [2018 г., Комедия, WEB-DLRip] Galfimbul 14679388161.37 GB 0 0 1527837317

10:15

1-Июн-18

Российские фильмы 2016-2018 (Новинки русского кино) ·· Zомбоящик (Константин Смирнов) [2018 г., Комедия, TS 720p] | Чистый звук Galfimbul 17479341231.63 GB 0 0 1517135315

13:28

28-Янв-18

Российские фильмы 2016-2018 (Новинки русского кино) ·· Zомбоящик (Константин Смирнов) [2018 г., Комедия, TS] | Чистый звук Galfimbul 733855744700 MB 0 0 1517135313

13:28

28-Янв-18

Еще никто не оставлял запись к записи скачать торрент Zомбоящик . Будь первым!

!Обратная связь