Ccleaner 5.35 | Chasm of Memories | Turn-Based RPG

Скачать через торрент Zомбоящик Фильм бесплатно в хорошем качестве torrent

Скачивайте на UnionPeer.org фильмы через торрент без регистрации. Новинки кино в хорошем качестве через торрент. На UnionPeer.org можно скачать через торрент фильмы 2014 и 2015 годов. Самые новые фильмы.

Скачать торрент Zомбоящик бесплатно через .torrent фильм мультфильм сериал

Статистика раздачи
Размер:  746 MB   |    Зарегистрирован:  17 дней   |    .torrent скачан:  47 раз   |   
Раздают:  1  
   
загрузка...
 
Автор Сообщение

Galfimbul

avatar Galfimbul



Zомбоящик


Жанр: комедия
Год выпуска: 2018
Продолжительность: 00:59:19
Режиссёр: Константин Смирнов
В ролях: Гарик Харламов, Гарик Мартиросян, Тимур Батрутдинов, Александр Ревва, Павел Воля, Екатерина Варнава, Андрей Скороход, Роман Юнусов, Ольга Бузова, Анна Хилькевич
Описание: Во времена Шекспира весь мир был театром, в наши же дни его захватил зомбоящик. 30 звезд ТНТ. Все жанры: драма, комедия, боевик, триллер, научная фантастика, байопик, эротика и экспериментальное кино. От бессмысленного и беспощадного стеба не скроется никто: ни футболисты, ни геи, ни чиновники, ни священники, ни расисты, ни онанисты! Герои «Zомбоящика» интригуют, дразнят, издеваются и смеются вместе со зрителями, доказывая, что вся наша жизнь и есть «Zомбоящик».


Качество видео: WEB-DLRip-AVC / WEB-DL 1080p
Формат видео: MKV
Видео: MPEG-4 AVC, 928x522 (16:9), 25.000 fps, ~1374 kbps avg, 0.113 bit/pixel
Аудио: 48 kHz, AC3 Dolby Digital, 3/2 (L,C,R,l,r) + LFE ch, ~384 kbps avg
Complete name               : D:\Раздача\Zомбоящик (2018) WEB-DLRip-AVC_ivanes20031987.mkv
Format                      : Matroska
Format version              : Version 2
File size                   : 746 MiB
Duration                    : 59 min 19 s
Overall bit rate            : 1 759 kb/s
Movie name                  : Zомбоящик (2018) WEB-DLRip-AVC_ivanes20031987
Encoded date                : UTC 2018-06-07 00:17:43
Writing application         : mkvmerge v4.4.0 ('Die Wiederkehr') сборка от Jan  3 2011 21:40:45
Writing library             : libebml v1.0.0 + libmatroska v1.0.0
Cover                       : Yes
Attachments                 : cover.jpg

Video
ID                          : 1
Format                      : AVC
Format/Info                 : Advanced Video Codec
Format profile              : [email protected]
Format settings, CABAC      : Yes
Format settings, RefFrames  : 14 frames
Codec ID                    : V_MPEG4/ISO/AVC
Duration                    : 59 min 19 s
Bit rate                    : 1 374 kb/s
Width                       : 928 pixels
Height                      : 522 pixels
Display aspect ratio        : 16:9
Frame rate mode             : Constant
Frame rate                  : 25.000 FPS
Color space                 : YUV
Chroma subsampling          : 4:2:0
Bit depth                   : 8 bits
Scan type                   : Progressive
Bits/(Pixel*Frame)          : 0.113
Stream size                 : 569 MiB (76%)
Title                       : Rip by ivanes20031987
Writing library             : x264 core 155 r2901 7d0ff22
Encoding settings           : cabac=1 / ref=14 / deblock=1:-3:-3 / analyse=0x3:0x113 / me=umh / subme=10 / psy=1 / psy_rd=1.00:0.00 / mixed_ref=1 / me_range=32 / chroma_me=1 / trellis=2 / 8x8dct=1 / cqm=0 / deadzone=21,11 / fast_pskip=0 / chroma_qp_offset=-2 / threads=12 / lookahead_threads=3 / sliced_threads=0 / nr=0 / decimate=0 / interlaced=0 / bluray_compat=0 / constrained_intra=0 / bframes=14 / b_pyramid=2 / b_adapt=2 / b_bias=0 / direct=1 / weightb=1 / open_gop=0 / weightp=2 / keyint=250 / keyint_min=25 / scenecut=40 / intra_refresh=0 / rc_lookahead=60 / rc=2pass / mbtree=0 / bitrate=1374 / ratetol=1.0 / qcomp=0.60 / qpmin=0 / qpmax=69 / qpstep=4 / cplxblur=20.0 / qblur=0.5 / vbv_maxrate=50000 / vbv_bufsize=62500 / nal_hrd=none / filler=0 / ip_ratio=1.40 / pb_ratio=1.30 / aq=1:1.00
Default                     : Yes
Forced                      : No

Audio
ID                          : 2
Format                      : AC-3
Format/Info                 : Audio Coding 3
Format settings, Endianness : Big
Codec ID                    : A_AC3
Duration                    : 59 min 19 s
Bit rate mode               : Constant
Bit rate                    : 384 kb/s
Channel(s)                  : 6 channels
Channel positions           : Front: L C R, Side: L R, LFE
Sampling rate               : 48.0 kHz
Frame rate                  : 31.250 FPS (1536 SPF)
Bit depth                   : 16 bits
Compression mode            : Lossy
Stream size                 : 163 MiB (22%)
Language                    : Russian
Service kind                : Complete Main
Default                     : Yes
Forced                      : No
x264 [info]: frame I:563   Avg QP:14.82  size: 52444
x264 [info]: frame P:23452 Avg QP:18.52  size: 14286
x264 [info]: frame B:64982 Avg QP:20.24  size:  3791
x264 [info]: consecutive B-frames:  3.2%  5.9%  4.9% 58.2%  9.8% 13.1%  1.5%  1.0%  0.2%  0.3%  0.1%  0.2%  0.2%  0.3%  1.2%
x264 [info]: mb I  I16..4: 18.7% 59.3% 22.0%
x264 [info]: mb P  I16..4:  1.6%  5.0%  1.0%  P16..4: 34.2% 21.2% 12.4%  0.0%  0.0%    skip:24.7%
x264 [info]: mb B  I16..4:  0.1%  0.4%  0.1%  B16..8: 27.2%  7.4%  2.2%  direct: 3.4%  skip:59.3%  L0:39.3% L1:46.7% BI:13.9%
x264 [info]: 8x8 transform intra:64.0% inter:56.6%
x264 [info]: coded y,uvDC,uvAC intra: 68.5% 71.4% 54.3% inter: 13.6% 12.4% 7.0%
x264 [info]: i16 v,h,dc,p: 58% 19%  6% 17%
x264 [info]: i8 v,h,dc,ddl,ddr,vr,hd,vl,hu: 13% 10% 13%  8% 11% 12% 11% 11% 11%
x264 [info]: i4 v,h,dc,ddl,ddr,vr,hd,vl,hu: 14% 13%  6%  9% 13% 13% 11% 10% 12%
x264 [info]: i8c dc,h,v,p: 46% 22% 18% 14%
x264 [info]: Weighted P-Frames: Y:3.7% UV:1.6%
x264 [info]: ref P L0: 51.7%  9.7% 15.4%  5.0%  4.2%  3.0%  2.8%  1.6%  1.6%  1.2%  1.1%  0.9%  0.9%  0.8%  0.1%  0.0%
x264 [info]: ref B L0: 76.3%  9.9%  4.5%  2.3%  1.5%  1.3%  1.2%  0.9%  0.7%  0.5%  0.4%  0.3%  0.2%
x264 [info]: ref B L1: 95.9%  4.1%
x264 [info]: kb/s:1372.93


Трекер:  [ 07-Июн-2018 03:24 ]

  

Скачать .torrent

Размер .torrent файла 15 KB


Размер: 746 MB
Хэш (hash) релиза: 0322c00dc8b5bf8291a9f405f651b1f1a3ef5466
Подписка на обновления:

Торренты, похожие на Zомбоящик скачать торрент

Форум Название Автор Размер S L Добавлен
Российские фильмы до 2016 ·· Zомбоящик (Константин Смирнов) [2018, Россия, комедия, WEB-DL 1080p] Original Rus Galfimbul 24652575032.3 GB 0 0 1528457423

14:30

8-Июн-18

Российские фильмы до 2016 ·· Zомбоящик (Константин Смирнов) [2018, комедия, WEB-DLRip] Galfimbul 777641984742 MB 0 0 1528399448

22:24

7-Июн-18

Российские фильмы до 2016 ·· Zомбоящик (Константин Смирнов) [2018, комедия, WEB-DLRip] Galfimbul 11705446401.09 GB 0 0 1528358049

10:54

7-Июн-18

Российские фильмы 2016-2018 (Новинки русского кино) ·· Zомбоящик (Константин Смирнов) [2018 г., Комедия, WEB-DL 720p] Galfimbul 25943633342.42 GB 0 0 1527837318

10:15

1-Июн-18

Российские фильмы 2016-2018 (Новинки русского кино) ·· Zомбоящик (Константин Смирнов) [2018 г., Комедия, WEB-DLRip] Galfimbul 14679388161.37 GB 0 0 1527837317

10:15

1-Июн-18

Российские фильмы 2016-2018 (Новинки русского кино) ·· Zомбоящик (Константин Смирнов) [2018 г., Комедия, TS 720p] | Чистый звук Galfimbul 17479341231.63 GB 0 0 1517135315

13:28

28-Янв-18

Российские фильмы 2016-2018 (Новинки русского кино) ·· Zомбоящик (Константин Смирнов) [2018 г., Комедия, TS] | Чистый звук Galfimbul 733855744700 MB 0 0 1517135313

13:28

28-Янв-18

Еще никто не оставлял запись к записи скачать торрент Zомбоящик . Будь первым!

!Обратная связь