Sardar Mohammad (2017) Watch Sardar Mohammad Full Movie Online, Free Download Sardar Mohammad (2017) Full Movie, Sardar Mohammad Full Movie Download in HD Mp4 Mobile Movie, Watch online Sardar Mohammad Full Movie Free Download : Set during the India-Pakistan partition, the story of Sardar Mohammad revolves around an infant who is saved by an Indian Sikh police officer. | Mass Effect-DETONATiON | Steven Vidler

Скачать через торрент Пелена Серии: 1-6 из 10 Фильм бесплатно в хорошем качестве torrent

Скачивайте на UnionPeer.org фильмы через торрент без регистрации. Новинки кино в хорошем качестве через торрент. На UnionPeer.org можно скачать через торрент фильмы 2014 и 2015 годов. Самые новые фильмы.

Скачать торрент Пелена Серии: 1-6 из 10 бесплатно через .torrent фильм мультфильм сериал

Статистика раздачи
Размер:  4.1 GB   |    Зарегистрирован:  13 дней   |    .torrent скачан:  78 раз   |   
Раздают:  1  
   
загрузка...
 
Автор Сообщение

Galfimbul

avatar Galfimbul


Пелена

Год выпуска: 2018
Производство: Киевтелефильм
Жанр: мелодрама, детектив, криминал
Продолжительность: ~00:50:00 серия
Субтитры: нет

Режиссёр: Валерий Ибрагимов

В ролях: Александра Булычёва, Антон Батырев, Андрей Чадов, Валерий Баринов, Игорь Головин, Настя Кербенген, Елизавета Анохина, Владимир Горянский, Ирина Мак, Лев Сомов, Олеся Жураковская, Константин Корецкий, Софья Письман, Алексей Тритенко, Мирослава Филиппович, Ирина Авдеенко, Владимир Гладкий, Сергей Сипливый, Наталия Цыганенко, Владислав Мамчур, Елена Хижная, Наталья Корецкая, Сергей Кучера, Евгений Паперный, Станислав Щёкин

Описание: Оксана – журналистка, специализирующаяся на громких коррупционных делах. Кирилл – следователь по особо тяжким преступлениям, которому эта журналистка изрядно портит жизнь. На первый взгляд, они враги, а на самом деле – супруги на грани развода. Из-за своего расследования Оксана попадает в эпицентр масштабного скандала и окончательно ссорится с мужем. В качестве наказания ей предстоит на пару месяцев залечь на дно, работая корреспондентом местной газеты «Вечерняя Пелена».

Реклама: Нет.

Кино-театр

Sample

Качество: WEBRip - Files-x
Формат: AVI
Видео кодек: XviD
Аудио кодек: AC3
Видео: 720x400 (1.80:1), 25 fps, XviD build 73 ~1800 kbps avg, 0.248 bit/pixel
Аудио: 48.0 kHz, AC3 Dolby Digital, 2/0 (L,R) ch, ~ 192 kbps
Раздача ведётся путём добавления новых серий, при каждом добавлении создаётся новый торрент. Чтобы начать докачку новой серии, пользователям необходимо сделать следующее:

- Остановить скачивание.
- Удалить старый торрент у себя из клиента (старые серии удалять не надо).
- Скачать новый торрент и запустить его у себя в клиенте вместо старого, при этом указать клиенту путь в старую папку куда и должно происходить скачивание новых серий.

Ваш клиент при этом должен произвести хеширование (проверку) старой папки (если не производит сам - помогите ему сделать это), и будет докачивать только те серии которых у вас ещё нет. Старые серии при этом не удаляются, а продолжают раздаваться!
Если вы уже удалили старые серии, то предотвратить повторную закачку старых серий можно, отжав галочку в соответствующих местах при запуске нового торрента. По возможности, желательно не удалять старые серии как можно дольше, чтобы релизер не столько продолжал раздавать старые серии, а смог сконцентрироваться на новых.
General
Complete name : D:\Пелена.2017.WEBRip.Files-x\01.Пелена.2017.WEBRip.Files-x.avi
Format : AVI
Format/Info : Audio Video Interleave
File size : 701 MiB
Duration : 49 min 17 s
Overall bit rate : 1 987 kb/s
Writing application : VirtualDubMod 1.5.10.3 | www.virtualdub-fr.org || (build 2550/release)
Writing library : VirtualDubMod build 2550/release

Video
ID : 0
Format : MPEG-4 Visual
Format profile : Advanced [email protected]
Format settings : BVOP1 / QPel / Custom Matrix
Format settings, BVOP : 1
Format settings, QPel : Yes
Format settings, GMC : No warppoints
Format settings, Matrix : Custom
Codec ID : XVID
Codec ID/Hint : XviD
Duration : 49 min 17 s
Bit rate : 1 785 kb/s
Width : 720 pixels
Height : 400 pixels
Display aspect ratio : 16:9
Frame rate : 25.000 FPS
Color space : YUV
Chroma subsampling : 4:2:0
Bit depth : 8 bits
Scan type : Progressive
Compression mode : Lossy
Bits/(Pixel*Frame) : 0.248
Stream size : 629 MiB (90%)
Writing library : XviD 73

Audio
ID : 1
Format : AC-3
Format/Info : Audio Coding 3
Codec ID : 2000
Duration : 49 min 17 s
Bit rate mode : Constant
Bit rate : 192 kb/s
Channel(s) : 2 channels
Channel positions : Front: L R
Sampling rate : 48.0 kHz
Frame rate : 31.250 FPS (1536 SPF)
Bit depth : 16 bits
Compression mode : Lossy
Stream size : 67.7 MiB (10%)
Alignment : Split accross interleaves
Interleave, duration : 40 ms (1.00 video frame)
Interleave, preload duratio : 500 ms
Service kind : Complete Main


Трекер:  [ 12-Июн-2018 16:16 ]

  

Скачать .torrent

Размер .torrent файла 21 KB


Размер: 4.1 GB
Хэш (hash) релиза: 307655034705efe3202d7d27863a0fd8040f4b7d
Подписка на обновления:

Торренты, похожие на Пелена Серии: 1-6 из 10 скачать торрент

Форум Название Автор Размер S L Добавлен
Российские сериалы ·· Пелена / Серии: 1-6 из 10 (Валерий Ибрагимов) [2017, мелодрама, детектив, криминал, WEBRip-AVC] Galfimbul 40305383013.75 GB 0 0 1528306940

20:42

6-Июн-18

bot

Раздача обновлена!
Перекачайте торрент-файл.

bot

Раздача обновлена!
Перекачайте торрент-файл.

Хотите добавить комментарий к записи скачать торрент Пелена Серии: 1-6 из 10

!Обратная связь