Shining Tears X Wind | BlazBlue: Alter Memory | Growing Up Fisher

Скачать через торрент Последнее дело комиссара Берлаха Фильм бесплатно в хорошем качестве torrent

Скачивайте на UnionPeer.org фильмы через торрент без регистрации. Новинки кино в хорошем качестве через торрент. На UnionPeer.org можно скачать через торрент фильмы 2014 и 2015 годов. Самые новые фильмы.

Скачать торрент Последнее дело комиссара Берлаха бесплатно через .torrent фильм мультфильм сериал

Статистика раздачи
Размер:  1.45 GB   |    Зарегистрирован:  17 дней   |    .torrent скачан:  28 раз   |   
Раздают:  1  
   
загрузка...
 
Автор Сообщение

Galfimbul

avatar Galfimbul


Последнее дело комиссара Берлаха (2 серии)

Жанр: детектив, триллер
Год выпуска: 1971
Продолжительность: 02:45:41

Режиссёр: Василий Левин

В ролях: Николай Гринько, Александр Бениаминов, Андрей Попов, Николай Волков, Улдис Ваздикс, Артур Димитерс, Николай Симонов, Светлана Коркошко, Ева Мурниеце

Описание: По мотивам повести швейцарского писателя Ф. Дюрренматта «Подозрение». Последние месяцы жизни комиссара полиции Берлаха посвящены розыску военного преступника, нацистского врача-изувера Эменбергера. Скрываясь под чужим именем, он и в мирные дни продолжает ставить жестокие опыты на людях. Смертельно больному Берлаху удается разоблачить преступника и сломить его, заставив сознаться в содеянном...



Сэмпл: http://multi-up.com/1200762

Качество видео: DVDRip (Исходник - DVB Video)
Формат видео: AVI

Видео: XviD 73, 640x480, (4:3), 25,000 fps, 1514 Кбит/с, 8 бит
Аудио: Русский (MP3, 2 ch, 48,0 KHz, 128 Kbps)
Общее
Полное имя : H:\Фильмы на трекер\Последнее дело комиссара Берлаха (детектив, триллер 1971 год).avi
Формат : AVI
Формат/Информация : Audio Video Interleave
Размер файла : 1,45 Гбайт
Продолжительность : 2 ч. 5 м.
Общий поток : 1652 Кбит/сек
Программа кодирования : VirtualDubMod 1.5.10.3 | www.virtualdub-fr.org || (build 2550/release)
Библиотека кодирования : Boilsoft AVI tool build 30012/release

Видео
Идентификатор : 0
Формат : MPEG-4 Visual
Профиль формата : Advanced [email protected]
Параметр BVOP формата : 2
Параметр QPel формата : Нет
Параметр GMC формата : Без точки перехода
Параметр матрицы формата : Выборочная
Идентификатор кодека : XVID
Идентификатор кодека/Подсказка : XviD
Продолжительность : 2 ч. 5 м.
Битрейт : 1514 Кбит/сек
Ширина : 640 пикселей
Высота : 480 пикселей
Соотношение сторон : 4:3
Частота кадров : 25,000 кадров/сек
Цветовое пространство : YUV
Субдискретизация насыщенности : 4:2:0
Битовая глубина : 8 бит
Тип развёртки : Прогрессивная
Метод сжатия : С потерями
Бит/(Пиксели*Кадры) : 0.197
Размер потока : 1,33 Гбайт (92%)
Библиотека кодирования : XviD 73

Аудио
Идентификатор : 1
Формат : MPEG Audio
Версия формата : Version 1
Профиль формата : Layer 3
Идентификатор кодека : 55
Идентификатор кодека/Подсказка : MP3
Продолжительность : 2 ч. 5 м.
Вид битрейта : Постоянный
Битрейт : 128 Кбит/сек
Каналы : 2 канала
Частота : 48,0 КГц
Метод сжатия : С потерями
Размер потока : 115 Мбайт (8%)
Выравнивание : Соединение по промежуткам
Продолжительность промежутка : 40 мс. (1,00 видеокадр)
Время предзагрузки промежутка : 504 мс.
Библиотека кодирования : LAME3.99r
Настройки программы : -m s -V 4 -q 2 -lowpass 17 -b 128


Трекер:  [ 06-Июн-2018 17:54 ]

  

Скачать .torrent

Размер .torrent файла 15 KB


Размер: 1.45 GB
Хэш (hash) релиза: ab6c38e9add0f604b294f96e6e1f1cc52384649d
Подписка на обновления:

Торренты, похожие на Последнее дело комиссара Берлаха скачать торрент

Форум Название Автор Размер S L Добавлен
Российские фильмы до 2016 ·· Последнее дело комиссара Берлаха (Василий Левин) [1971, триллер, политический детектив, DVB] damien1990 26905395202.51 GB 0 0 1364062082

21:08

23-Мар-13

Российские фильмы до 2016 ·· Последнее дело комиссара Берлаха (Василий Левин) [1972 г., детектив, DVDRip] damien1990 722644992689 MB 0 0 1364062021

21:07

23-Мар-13

Еще никто не оставлял запись к записи скачать торрент Последнее дело комиссара Берлаха . Будь первым!

!Обратная связь