Merry Christmas!!!!! | 4x22 The Flash | Nowy Jork w 1993 w HD 1080i - materiał z demo kasety pokazującej możliwości DVHS

Скачать через торрент [ATV3] Мсье Кляйн Mr. Klein бесплатно русская версия torrent активатор

Статистика раздачи
Размер:  9.36 GB   |    Зарегистрирован:  19 дней   |    .torrent скачан:  38 раз   |   
Раздают:  1  
   
загрузка...
 
Автор Сообщение

Galfimbul

avatar Galfimbul


Мсье Кляйн / Mr. Klein
-

7.652 / 10 7.70 / 10
Год выпуска: 1976
Страна: Франция, Италия
Жанр: Триллер, драма, криминал, детектив, военный
Продолжительность: 02:02:49

Перевод: Профессиональный (двухголосый закадровый) (НТВ)
Оригинальная аудиодорожка: Есть
Cубтитры: Нет
Режиссёр: Джозеф Лоузи
Сценарий: Франко Салинас, Фернандо Моранди, Коста-Гаврас
Продюсер: Ален Делон, Ральф Баум, Роберт Куперберг
Оператор: Джерри Фишер
Композитор: Эджисто Макки, Пьер Порте
Художник: Александр Траунер, Колетт Бодо, Анналиса Насалли-Рокка
Монтаж: Мари Кастро-Васкес, Анри Ланоэ, Мишель Нени
В ролях: Ален Делон, Жанна Моро, Франсин Берже, Жюльет Берто, Жан Буиз, Сюзанн Флон, Массимо Джиротти, Микаэль Лонсдаль, Мишель Омон, Ролан Бертен

Бюджет: $3 500 000

Мировая премьера: 22 мая 1976

Описание: Париж. 1942. Робер Кляйн, эльзасец по происхождению, католик по воспитанию, несмотря на немецкую оккупацию, вполне преуспевает, скупая по дешевке у евреев произведения искусства, мебель. Но вся его жизнь резко меняется, когда он получает по почте газету, предназначенную для евреев, и обнаруживает, что у него есть двойник…
Качество исходника: BDRemux (Кинозал)
Качество: BDRip
Тип: HD (1080p)
Контейнер: M4V
Видео: H.264, 1800x1080, 5:3, 10.7 Mbps, 23.976 (24000/1001) fps

Аудио 1: Русский/Профессиональный (двухголосый закадровый) , AAC / 2.0 / 160 Kbps / 48.0 KHz
Аудио 2: Французский/Оригинальная дорожка , AAC / 2.0 / 160 Kbps / 48.0 KHz
Sort Name: Mr Klein
XID: Apple:vendor_id:KP-1976-56907
contentID: 372924009
Screenwriters: Фернандо Моранди, Франко Салинас, Коста-Гаврас
Producers: Ален Делон, Ральф Баум, Роберт Куперберг
Director: Джозеф Лоузи
Cast: Ален Делон, Жанна Моро, Франсин Берже, Жюльет Берто, Жан Буиз, Сюзанн Флон, Массимо Джиротти, Микаэль Лонсдаль, Мишель Омон, Ролан Бертен
Rating: 60
Long Description: Париж. 1942. Робер Кляйн, эльзасец по происхождению, католик по воспитанию, несмотря на немецкую оккупацию, вполне преуспевает, скупая по дешевке у евреев произведения искусства, мебель. Но вся его жизнь резко меняется, когда он получает по почте газету, предназначенную для евреев, и обнаруживает, что у него есть двойник...
Description: Париж. 1942. Робер Кляйн, эльзасец по происхождению, католик по воспитанию, несмотря на немецкую оккупацию, вполне преуспевает, скупая по дешевке у евреев произведения искусства, мебель. Но вся его жизнь резко меняется, когда он получает по почте газету, предназначенную для евреев, и обнаруживает, что у него есть двойник...
Release Date: 1976-09-23T08:00:00Z
Genre: Drame
Artist: Joseph Losey
Name: Mr Klein
General
Complete name                            : /Users/imac/HandBrake/Mr Klein (1080p HD).m4v
Format                                   : MPEG-4
Codec ID                                 : M4V  (M4V /M4A /mp42/isom)
File size                                : 9.36 GiB
Duration                                 : 2h 2mn
Overall bit rate mode                    : Variable
Overall bit rate                         : 10.9 Mbps
Movie name                               : Mr Klein
Performer                                : Joseph Losey
Director                                 : Джозеф Лоузи
Actor                                    : Ален Делон / Жанна Моро / Франсин Берже / Жюльет Берто / Жан Буиз / Сюзанн Флон / Массимо Джиротти / Микаэль Лонсдаль / Мишель Омон / Ролан Бертен
Screenplay by                            : Фернандо Моранди / Франко Салинас / Коста-Гаврас
Producer                                 : Ален Делон / Ральф Баум / Роберт Куперберг
Genre                                    : Drame
ContentType                              : Short Film
Description                              : Париж. 1942. Робер Кляйн, эльзасец по происхождению, католик по воспитанию, несмотря на немецкую оккупацию, вполне преуспевает, скупая по дешевке у евреев произведения искусства, мебель. Но вся его жизнь резко меняется, когда он получает по почте газету, предназначенную для евреев, и обнаруживает, что у него есть двойник...
Recorded date                            : UTC 1976-09-23 08:00:00
Encoded date                             : UTC 2018-06-05 22:15:36
Tagged date                              : UTC 2018-06-05 22:17:43
Cover                                    : Yes
Rating                                   : None
Title/Sort                               : Mr Klein
LongDescription                          : Париж. 1942. Робер Кляйн, эльзасец по происхождению, католик по воспитанию, несмотря на немецкую оккупацию, вполне преуспевает, скупая по дешевке у евреев произведения искусства, мебель. Но вся его жизнь резко меняется, когда он получает по почте газету, предназначенную для евреев, и обнаруживает, что у него есть двойник...
AppleStoreCatalogID                      : 372924009
Vendor                                   : Apple:vendor_id:KP-1976-56907
ContentRating                            : fr-movie|Tout public|000|

Video
ID                                       : 1
Format                                   : AVC
Format/Info                              : Advanced Video Codec
Format profile                           : [email protected]
Format settings                          : CABAC / 4 Ref Frames
Format settings, CABAC                   : Yes
Format settings, ReFrames                : 4 frames
Codec ID                                 : avc1
Codec ID/Info                            : Advanced Video Coding
Duration                                 : 2h 2mn
Source duration                          : 2h 2mn
Bit rate                                 : 10.7 Mbps
Width                                    : 1 800 pixels
Height                                   : 1 080 pixels
Display aspect ratio                     : 5:3
Frame rate mode                          : Variable
Frame rate                               : 23.976 (24000/1001) fps
Minimum frame rate                       : 23.974 fps
Maximum frame rate                       : 23.981 fps
Color space                              : YUV
Chroma subsampling                       : 4:2:0
Bit depth                                : 8 bits
Scan type                                : Progressive
Bits/(Pixel*Frame)                       : 0.230
Stream size                              : 9.07 GiB (97%)
Source stream size                       : 9.07 GiB (97%)
Title                                    : Main Program
Writing library                          : x264 core 155 r2893 b00bcaf
Encoding settings                        : cabac=1 / ref=4 / deblock=1:-3:-2 / analyse=0x3:0x133 / me=umh / subme=9 / psy=1 / psy_rd=1.00:0.00 / mixed_ref=1 / me_range=32 / chroma_me=1 / trellis=2 / 8x8dct=1 / cqm=0 / deadzone=6,6 / fast_pskip=1 / chroma_qp_offset=-2 / threads=34 / lookahead_threads=8 / sliced_threads=0 / nr=0 / decimate=0 / interlaced=0 / bluray_compat=0 / constrained_intra=0 / bframes=16 / b_pyramid=2 / b_adapt=2 / b_bias=0 / direct=3 / weightb=1 / open_gop=0 / weightp=2 / keyint=240 / keyint_min=24 / scenecut=40 / intra_refresh=0 / rc_lookahead=40 / rc=2pass / mbtree=1 / bitrate=10700 / ratetol=1.0 / qcomp=0.80 / qpmin=0 / qpmax=69 / qpstep=4 / cplxblur=20.0 / qblur=0.5 / vbv_maxrate=10700 / vbv_bufsize=25000 / nal_hrd=none / filler=0 / ip_ratio=1.10 / aq=1:0.50
Language                                 : French
Encoded date                             : UTC 2018-06-05 22:15:36
Tagged date                              : UTC 2018-06-05 22:15:52
Color range                              : Limited
Color primaries                          : BT.709
Transfer characteristics                 : BT.709
Matrix coefficients                      : BT.709

Audio #1
ID                                       : 2
Format                                   : AAC
Format/Info                              : Advanced Audio Codec
Format profile                           : LC
Codec ID                                 : mp4a-40-2
Duration                                 : 2h 2mn
Source duration                          : 2h 2mn
Bit rate mode                            : Variable
Bit rate                                 : 161 Kbps
Maximum bit rate                         : 278 Kbps
Channel(s)                               : 2 channels
Channel positions                        : Front: L R
Sampling rate                            : 48.0 KHz
Frame rate                               : 46.875 fps (1024 SPF)
Compression mode                         : Lossy
Stream size                              : 141 MiB (1%)
Source stream size                       : 141 MiB (1%)
Title                                    : Russian Stereo
Language                                 : Russian
Default                                  : Yes
Alternate group                          : 1
Encoded date                             : UTC 2018-06-05 22:15:36
Tagged date                              : UTC 2018-06-05 22:15:52

Audio #2
ID                                       : 3
Format                                   : AAC
Format/Info                              : Advanced Audio Codec
Format profile                           : LC
Codec ID                                 : mp4a-40-2
Duration                                 : 2h 2mn
Source duration                          : 2h 2mn
Bit rate mode                            : Variable
Bit rate                                 : 172 Kbps
Maximum bit rate                         : 193 Kbps
Channel(s)                               : 2 channels
Channel positions                        : Front: L R
Sampling rate                            : 48.0 KHz
Frame rate                               : 46.875 fps (1024 SPF)
Compression mode                         : Lossy
Stream size                              : 151 MiB (2%)
Source stream size                       : 151 MiB (2%)
Title                                    : French Stereo
Language                                 : French
Default                                  : No
Alternate group                          : 1
Encoded date                             : UTC 2018-06-05 22:15:36
Tagged date                              : UTC 2018-06-05 22:15:52
x264 [info]: frame I:816   Avg QP:22.43  size:135804
x264 [info]: frame P:35368 Avg QP:23.05  size: 82688
x264 [info]: frame B:140513 Avg QP:23.96  size: 47686
x264 [info]: consecutive B-frames:  0.7%  1.2%  4.3% 18.4% 25.2% 41.5%  6.4%  1.4%  0.4%  0.2%  0.1%  0.0%  0.0%  0.0%  0.0%  0.0%  0.0%
x264 [info]: mb I  I16..4:  4.0% 89.6%  6.4%
x264 [info]: mb P  I16..4:  0.5% 10.1%  0.5%  P16..4: 51.1% 27.1%  9.9%  0.1%  0.0%    skip: 0.7%
x264 [info]: mb B  I16..4:  0.0%  1.0%  0.0%  B16..8: 50.9% 11.9%  2.4%  direct:18.7%  skip:15.0%  L0:46.9% L1:44.2% BI: 8.9%
x264 [info]: 8x8 transform intra:91.9% inter:66.1%
x264 [info]: direct mvs  spatial:98.0% temporal:2.0%
x264 [info]: coded y,uvDC,uvAC intra: 95.3% 55.7% 13.1% inter: 62.3% 31.5% 2.1%
x264 [info]: i16 v,h,dc,p: 40% 16% 15% 30%
x264 [info]: i8 v,h,dc,ddl,ddr,vr,hd,vl,hu: 12%  6%  3% 11% 17% 15% 14% 11% 11%
x264 [info]: i4 v,h,dc,ddl,ddr,vr,hd,vl,hu: 12%  5%  1% 10% 16% 17% 15% 12% 11%
x264 [info]: i8c dc,h,v,p: 40% 27% 19% 14%
x264 [info]: Weighted P-Frames: Y:6.2% UV:1.1%
x264 [info]: ref P L0: 41.7% 12.7% 29.5% 15.2%  0.9%  0.0%
x264 [info]: ref B L0: 83.2% 12.9%  3.9%
x264 [info]: ref B L1: 95.4%  4.6%
x264 [info]: kb/s:10568.36

Релиз подготовлен для просмотра на Apple TV, iPad, iPhone, iPod Touch.
Для просмотра данного релиза на компьютере с ОС Windows рекомендуется использовать VLC media player

Трекер:  [ 06-Июн-2018 01:36 ]

  

Скачать .torrent

Размер .torrent файла 94 KB


Размер: 9.36 GB
Хэш (hash) релиза: 01a87bcd9e058e0f956049fc3b74aeb151a28584

Еще никто не оставлял запись к записи скачать торрент [ATV3] Мсье Кляйн Mr. Klein . Будь первым!

!Обратная связь