Kaala 2018 Hindi 1080p WEB-DL H264-DDR | Raxco PerfectDisk Professional v13 0 821 Business Edition-CRD | Infinity Challenge Ep.322

Скачать через торрент Земля до начала времен 2: Приключения в Великой Долине The Land Before Time II: The Great Valley Adventure Фильм бесплатно в хорошем качестве torrent

Скачивайте на UnionPeer.org фильмы через торрент без регистрации. Новинки кино в хорошем качестве через торрент. На UnionPeer.org можно скачать через торрент фильмы 2014 и 2015 годов. Самые новые фильмы.

Скачать торрент Земля до начала времен 2: Приключения в Великой Долине The Land Before Time II: The Great Valley Adventure бесплатно через .torrent фильм мультфильм сериал

Статистика раздачи
Размер:  8.72 GB   |    Зарегистрирован:  2 месяца 13 дней   |    .torrent скачан:  36 раз   |   
Раздают:  1  
   
загрузка...
 
Автор Сообщение

Galfimbul

avatar Galfimbul


Земля до начала времен 2: Приключения в Великой Долине / The Land Before Time II: The Great Valley Adventure

Страна: США
Жанр: приключения, семейный
Продолжительность: 01:13:49
Год выпуска: 1994
Перевод 1: Профессиональный (дублированный) Селена Интернешнл
Перевод 2: Профессиональный (многоголосый закадровый) Премьер Видео Фильм
Перевод 3: Авторский (одноголосый закадровый) Сергей Визгунов
Перевод 4: Авторский (одноголосый закадровый) Юрий Живов
Перевод 5: Авторский (одноголосый закадровый) Михаил Иванов
Перевод 6: Авторский (одноголосый закадровый) Максим Ошурков
Русские субтитры: нет

Режиссёр: Рой Аллен Смит / Roy Allen Smith
Описание:
Действие второй части происходит в знакомой Вам миролюбивой Великой Долине, где резвятся малыши — динозаврики под присмотром своих родителей. Но однажды непоседливые ребята ускользнули из-под бдительного ока своих родных и оказались именно там, где неопытных детишек подстерегают неожиданности и опасности.

Приключения начинаются! Динозавриков ждут встречи с новыми знакомыми: воришками Оззи и Стратом, со страшными Острозубами и… таинственным яйцом!

Семпл: http://sendfile.su/1423849

Качество: WEB-DL 1080p
Формат: MKV
Видео: 1440x1080 (4:3), 23.976 fps, AVC, ~13.9 Mbps, 0.373 bits/pixel
Аудио 1: Russian, 48.0 KHz, AC3, 2 ch, 192 Kbps - Селена Интернешнл
Аудио 2: Russian, 48.0 KHz, FLAC, 2 ch - Премьер Видео Фильм
Аудио 3: Russian, 48.0 KHz, FLAC, 1 ch - Сергей Визгунов
Аудио 4: Russian, 48.0 KHz, AC3, 2 ch, 192 Kbps - Юрий Живов
Аудио 5: Russian, 48.0 KHz, AC3, 2 ch, 192 Kbps - Михаил Иванов
Аудио 6: Russian, 48.0 KHz, FLAC, 2 ch - Максим Ошурков
Аудио 7: English, 48.0 KHz, AC3+, 2 ch, 224 Kbps
Субтитры: английские

Запись дубляжа с телеканала Disney, оцифровка перевода Ошуркова - xfiles.
Оцифровка переводов: Премьер, Визгунова - bora86bora.
Перевод Живова с DVDRip от xfiles.
Предоставление перевода Иванова - RoxMarty.
GeneralUnique ID : 96407043844644721490452596075502838415 (0x4887523E080FD1233871B7B69D1D228F)Complete name : D:\The Land Before Time II - The Great Valley Adventure. WEB-DL 1080p.mkvFormat : MatroskaFormat version : Version 4 / Version 2File size : 8.72 GiBDuration : 1 h 13 minOverall bit rate mode : VariableOverall bit rate : 16.9 Mb/sEncoded date : UTC 2018-06-05 12:35:44Writing application : mkvmerge v23.0.0 ('The Bride Said No') 64-bitWriting library : libebml v1.3.6 + libmatroska v1.4.9

VideoID : 1Format : AVCFormat/Info : Advanced Video CodecFormat profile : [email protected] settings : CABAC / 4 Ref FramesFormat settings, CABAC : YesFormat settings, ReFrames : 4 framesCodec ID : V_MPEG4/ISO/AVCDuration : 1 h 13 minBit rate mode : VariableBit rate : 14.2 Mb/sMaximum bit rate : 15.0 Mb/sWidth : 1 440 pixelsHeight : 1 080 pixelsDisplay aspect ratio : 4:3Frame rate mode : ConstantFrame rate : 23.976 (24000/1001) FPSColor space : YUVChroma subsampling : 4:2:0Bit depth : 8 bitsScan type : ProgressiveBits/(Pixel*Frame) : 0.381Stream size : 7.32 GiB (84%)Writing library : x264 core 148 r2623 d5b2374Encoding settings : cabac=1 / ref=4 / deblock=1:-1:-1 / analyse=0x3:0x133 / me=umh / subme=9 / psy=1 / psy_rd=1.00:0.15 / mixed_ref=1 / me_range=24 / chroma_me=1 / trellis=2 / 8x8dct=1 / cqm=0 / deadzone=21,11 / fast_pskip=1 / chroma_qp_offset=-3 / threads=34 / lookahead_threads=5 / sliced_threads=0 / nr=150 / decimate=1 / interlaced=0 / bluray_compat=0 / constrained_intra=0 / bframes=8 / b_pyramid=2 / b_adapt=2 / b_bias=0 / direct=3 / weightb=1 / open_gop=0 / weightp=2 / keyint=120 / keyint_min=61 / scenecut=0 / intra_refresh=0 / rc_lookahead=120 / rc=crf / mbtree=1 / crf=18.0 / qcomp=0.60 / qpmin=0 / qpmax=69 / qpstep=4 / vbv_maxrate=15000 / vbv_bufsize=31250 / crf_max=0.0 / nal_hrd=vbr / filler=0 / ip_ratio=1.40 / aq=3:1.00Language : EnglishDefault : YesForced : NoColor range : LimitedColor primaries : BT.709Transfer characteristics : BT.709Matrix coefficients : BT.709

Audio #1ID : 2Format : AC-3Format/Info : Audio Coding 3Codec ID : A_AC3Duration : 1 h 13 minBit rate mode : ConstantBit rate : 192 kb/sChannel(s) : 2 channelsChannel positions : Front: L RSampling rate : 48.0 kHzFrame rate : 31.250 FPS (1536 SPF)Bit depth : 16 bitsCompression mode : LossyStream size : 101 MiB (1%)Title : Селена ИнтернешнлLanguage : RussianService kind : Complete MainDefault : YesForced : No

Audio #2ID : 3Format : FLACFormat/Info : Free Lossless Audio CodecCodec ID : A_FLACDuration : 1 h 13 minBit rate mode : VariableBit rate : 765 kb/sChannel(s) : 2 channelsChannel positions : Front: L RSampling rate : 48.0 kHzFrame rate : 11.719 FPS (4096 SPF)Bit depth : 16 bitsStream size : 404 MiB (5%)Title : Премьер Видео ФильмWriting library : libFLAC 20080709 (UTC 2008-07-09)Language : RussianDefault : NoForced : No

Audio #3ID : 4Format : FLACFormat/Info : Free Lossless Audio CodecCodec ID : A_FLACDuration : 1 h 13 minBit rate mode : VariableBit rate : 392 kb/sChannel(s) : 1 channelChannel positions : Front: CSampling rate : 48.0 kHzFrame rate : 11.719 FPS (4096 SPF)Bit depth : 16 bitsStream size : 207 MiB (2%)Title : Сергей ВизгуновWriting library : libFLAC 20080709 (UTC 2008-07-09)Language : RussianDefault : NoForced : No

Audio #4ID : 5Format : AC-3Format/Info : Audio Coding 3Codec ID : A_AC3Duration : 1 h 13 minBit rate mode : ConstantBit rate : 192 kb/sChannel(s) : 2 channelsChannel positions : Front: L RSampling rate : 48.0 kHzFrame rate : 31.250 FPS (1536 SPF)Bit depth : 16 bitsCompression mode : LossyStream size : 101 MiB (1%)Title : Юрий ЖивовLanguage : RussianService kind : Complete MainDefault : NoForced : No

Audio #5ID : 6Format : AC-3Format/Info : Audio Coding 3Codec ID : A_AC3Duration : 1 h 13 minBit rate mode : ConstantBit rate : 192 kb/sChannel(s) : 2 channelsChannel positions : Front: L RSampling rate : 48.0 kHzFrame rate : 31.250 FPS (1536 SPF)Bit depth : 16 bitsCompression mode : LossyStream size : 101 MiB (1%)Title : Михаил ИвановLanguage : RussianService kind : Complete MainDefault : NoForced : No

Audio #6ID : 7Format : FLACFormat/Info : Free Lossless Audio CodecCodec ID : A_FLACDuration : 1 h 13 minBit rate mode : VariableBit rate : 766 kb/sChannel(s) : 2 channelsChannel positions : Front: L RSampling rate : 48.0 kHzFrame rate : 11.719 FPS (4096 SPF)Bit depth : 16 bitsStream size : 405 MiB (5%)Title : Максим ОшурковWriting library : libFLAC 20080709 (UTC 2008-07-09)Language : RussianDefault : NoForced : No

Audio #7ID : 8Format : E-AC-3Format/Info : Enhanced Audio Coding 3Codec ID : A_EAC3Duration : 1 h 13 minBit rate mode : ConstantBit rate : 224 kb/sChannel(s) : 2 channelsChannel positions : Front: L RSampling rate : 48.0 kHzFrame rate : 187.500 FPS (256 SPF)Compression mode : LossyStream size : 118 MiB (1%)Language : EnglishService kind : Complete MainDefault : NoForced : No

TextID : 9Format : UTF-8Codec ID : S_TEXT/UTF8Codec ID/Info : UTF-8 Plain TextDuration : 1 h 9 minBit rate : 46 b/sCount of elements : 950Stream size : 23.5 KiB (0%)Language : EnglishDefault : NoForced : No

Menu00:00:00.000 : en:Studio Logos00:01:04.000 : en:The gang plays in the Peaceful Valley00:05:32.000 : en:Littlefoot wants to be older00:07:19.000 : en:Ozzy and Strut try to steal eggs00:10:32.000 : en:The gang tries to cross the sinking sand00:13:25.000 : en:Ozzy praises eggs and Littlefoot is put to bed00:17:42.000 : en:The little ones are tired of being treated like little ones00:29:50.000 : en:The gang returns with the egg00:31:02.000 : en:The gang decides what to do with the egg00:31:56.000 : en:Grandma wakes Littlefoot up00:32:32.000 : en:Ozzy vows revenge on those meddling kids00:33:17.000 : en:The egg hatches00:37:59.000 : en:Littlefoot decides to raise Chomper and saves his friends00:46:49.000 : en:Ozzy and Strut pull themselves up00:47:12.000 : en:The gang looks for Chomper00:49:36.000 : en:The gang looks for Chomper while trying to avoid danger01:02:06.000 : en:Chomper is reunited with his kind01:04:04.000 : en:Chomper saves Littlefoot01:05:57.000 : en:The dinosaurs close the hole01:07:16.000 : en:Everyone is called home for dinner01:08:12.000 : en:End Credits


Трекер:  [ 05-Июн-2018 17:30 ]

  

Скачать .torrent

Размер .torrent файла 22 KB


Размер: 8.72 GB
Хэш (hash) релиза: 9ba6654858fecfdc8e6540817bba77932caf0126
Подписка на обновления:

Торренты, похожие на Земля до начала времен 2: Приключения в Великой Долине The Land Before Time II: The Great Valley Adventure скачать торрент

Форум Название Автор Размер S L Добавлен
Мультфильмы до 2016 ·· Земля до начала времен 2: Приключения в Великой Долине / The Land Before Time II: The Great Valley Adventure (Рой Аллен Смит / Roy Allen Smith) [1994, мультфильм, приключения, семейный, DVD9 (Custom)] 4xAVO (Иванов, Ошурков, Визгунов, Живов) L 64619970566.02 GB 0 0 1368218227

23:37

10-Май-13

Еще никто не оставлял запись к записи скачать торрент Земля до начала времен 2: Приключения в Великой Долине The Land Before Time II: The Great Valley Adventure . Будь первым!

!Обратная связь