Watch Movie | Ben Mendelsohn | Regarder un film

Скачать через торрент Звёздная принцесса и силы зла Star vs. the Forces of Evil Фильм бесплатно в хорошем качестве torrent

Скачивайте на UnionPeer.org фильмы через торрент без регистрации. Новинки кино в хорошем качестве через торрент. На UnionPeer.org можно скачать через торрент фильмы 2014 и 2015 годов. Самые новые фильмы.

Скачать торрент Звёздная принцесса и силы зла Star vs. the Forces of Evil бесплатно через .torrent фильм мультфильм сериал

Статистика раздачи
Размер:  4.79 GB   |    Зарегистрирован:  20 дней   |    .torrent скачан:  65 раз   |   
Раздают:  1  
   
загрузка...
 
Автор Сообщение

Galfimbul

avatar Galfimbul


Звёздная принцесса и силы зла / Star vs. the Forces of Evil

Страна: США
Жанр: Фэнтези, приключения, фантастика
Продолжительность серии: 00:21:47
Год выпуска: 2015
Перевод: Профессиональный (дублированный)
Русские субтитры: нет

Режиссёр: Дарон Нефси / Daron Nefcy
Роли озвучивали: Наталья Терешкова, Иван Калинин, Анастасия Лапина, Алексей Войтюк, Инга Сметанина, Александр Матвеев, Антон Савенков

Описание: Принцесса волшебного измерения Мьюни Звёздочка Баттерфляй в 14 лет получает волшебную палочку от своей матери по наследству. Родители отправляют её на Землю, где она находит нового друга — Марко Диаза. Но Людо и его команду монстров не останавливает путешествие принцессы в другое измерение. Поэтому принцессе и её другу-каратисту Марко приходится постоянно сражаться с монстрами.

Список серий:
1. Звёздочка прибывает на землю / Вечеринка.с.пони
2. Сваха / Школьный дух
3. Рука-монстр / Другой.студент.по.обмену
4. Не унывай, Звёздочка / Приключенческий супермаркет
5. Отпуск семьи Диаз / Вечеринка Бриттни
6. Мьюзревание / Феетопия
7. Омар / Сонное колдовство
8. Бал кровавой луны / Печенья с предсказанием
9. Замороженный день / Королевская боль
10. Школа святой Ольги для капризных принцесс
11. День Мьюнизависимости / Банановый инцидент
12. Межпространственная экскурсия / Марко растит бороду
13. Штурм замка

Доп. информация: Если возникла проблема воспроизведения видео, оповестите меня, пожалуйста.

Семпл: http://yadi.sk/i/unc3x2Im3X9MJw

Качество: HDRip
Формат: MP4
Видео: MPEG-4, 1280x720, 25 fps, 2301 kbps
Аудио: AAC, 44 100 Hz, 2 ch, 192 kbps
Субтитры: отсутствуют
ОбщееФормат : MPEG-4Профиль формата : Base MediaИдентификатор кодека : isom (isom/iso2/avc1/mp41)Размер файла : 393 МбайтПродолжительность : 22 м. 2 с.Общий поток : 2495 Кбит/секНазвание фильма : Звёздная принцесса и силы зла - Сезон 1, Эпизод 1 | Звёздочка прибывает на Землю; Вечеринка с пониКомпозитор : Брайн Ким, Брэд БрикЖанр : ФэнтезиДата записи : 2015Программа кодирования : Lavf57.63.100Примечание : Синопсисы. Серия 1a: Когда во время тестирования своей новой волшебной палочки Звёздочка случайно едва не разрушает своё королевство, родители отправляют юную принцессу на Землю — для её же безопасности. На Земле Звёздочка находит нового друга, Марко. СерXtra : WM/ParentalRating

ВидеоИдентификатор : 1Формат : AVCФормат/Информация : Advanced Video CodecПрофиль формата : [email protected]Настройки формата : CABAC / 4 Ref FramesПараметр CABAC формата : ДаПараметр RefFrames формата : 4 кадраИдентификатор кодека : avc1Идентификатор кодека/Информация : Advanced Video CodingПродолжительность : 22 м. 2 с.Битрейт : 2301 Кбит/секШирина : 1280 пикселейВысота : 720 пикселейСоотношение сторон : 16:9Режим частоты кадров : ПостоянныйЧастота кадров : 25,000 кадров/секЦветовое пространство : YUVСубдискретизация насыщенности : 4:2:0Битовая глубина : 8 битТип развёртки : ПрогрессивнаяБит/(Пиксели*Кадры) : 0.100Размер потока : 363 Мбайт (92%)Дата пометки : UTC 2017-07-25 00:01:38

АудиоИдентификатор : 2Формат : AACФормат/Информация : Advanced Audio CodecПрофиль формата : LCИдентификатор кодека : mp4a-40-2Продолжительность : 22 м. 2 с.Duration_FirstFrame : 17 мс.Duration_LastFrame : -13 мс.Вид битрейта : ПостоянныйБитрейт : 192 Кбит/секКаналы : 2 каналаРасположение каналов : Front: L RЧастота : 44,1 КГцЧастота кадров : 43,066 кадра/сек (1024 SPF)Метод сжатия : С потерямиРазмер потока : 30,0 Мбайт (8%)Default : ДаAlternateGroup/String : 1Дата пометки : UTC 2017-07-25 00:01:38
Предыдущие и альтернативные раздачи

Трекер:  [ 05-Июн-2018 14:54 ]

  

Скачать .torrent

Размер .torrent файла 14 KB


Размер: 4.79 GB
Хэш (hash) релиза: 6ab799813db77552e47e7201f8c34eb577e52932
Подписка на обновления:

Еще никто не оставлял запись к записи скачать торрент Звёздная принцесса и силы зла Star vs. the Forces of Evil . Будь первым!

!Обратная связь