Baixar APK | Tomo-chan wa Onnanoko! Chapter 749: | Laurie Athey

Скачать через торрент Бывшие Серии: 1-8 из 8 Фильм бесплатно в хорошем качестве torrent

Скачивайте на UnionPeer.org фильмы через торрент без регистрации. Новинки кино в хорошем качестве через торрент. На UnionPeer.org можно скачать через торрент фильмы 2014 и 2015 годов. Самые новые фильмы.

Скачать торрент Бывшие Серии: 1-8 из 8 бесплатно через .torrent фильм мультфильм сериал

Статистика раздачи
Размер:  18.54 GB   |    Зарегистрирован:  16 дней   |    .torrent скачан:  131 раз   |   
Раздают:  1  
   
загрузка...
 
Автор Сообщение

Galfimbul

avatar Galfimbul


Бывшие

Год выпуска: 2018
Производство: Yellow, Black and White
Жанр: Драма, мелодрама
Продолжительность: 00:50:24
Субтитры: нет
Режиссёр: Иван Китаев
В ролях: Любовь Аксёнова, Денис Шведов, Григорий Чабан, Татьяна Волкова (III), Виталий Хаев, Наталья Рогожкина, Софья Лебедева, Владимир Жеребцов, Павел Ворожцов, Сергей Галахов, Софья Урицкая, Сергей Ланбамин, Константин Адаев, Леонид Громов, Виктория Полторак, Сахат Дурсунов, Марина Орёл, Роман Индык, Владимир Стеклов, Любовь Германова, Ольга Лапшина, Василий Кортуков, Даниил Вахрушев, Петар Зекавица, Евгений Сытый, Анатолий Журавлёв
Описание: Яна Миронова, дочь очень богатого чиновника, глубоко несчастна. Сложные, разрушительные отношения в семье и отсутствие друзей отбивают у нее желание быть в реальном мире, давно ставшим отвратительным. Девушка находит самый простой способ решения своих проблем, и через некоторое время становится пациенткой реабилитационной клиники для алкоголиков и наркозависимых. Там она знакомится с Ильей - новым психологом-консультантом. Поначалу Яна для него - очередная сложная пациентка, но постепенно Илья начинает видеть таланты Яны, раскрывающиеся в процессе выздоровления. Зарождаются новые чувства, неожиданные для обоих…
Релиз:
Сэмпл: http://multi-up.com/1200587
Качество: HDTV 1080i
Формат: TS
Видео кодек: H.264
Аудио кодек: AC3
Видео: MPEG-4 AVC, 1920x1080 (16:9), 25.000 fps, 5260 Kbps, 0.101 bits/pixel
Аудио: 48 kHz, MP2, 2 ch, 192 Kbps

Реклама: Нет
General #1
ID : 1 (0x1)
Complete name : Downloads\Byvshie.HDTV(1080i).GeneralFilm\01.Byvshie.HDTV(1080i).GeneralFilm.ts
Format : MPEG-TS
File size : 2.16 GiB
Duration : 50mn 24s
Overall bit rate mode : Variable
Overall bit rate : 6 146 Kbps
Video #4121
ID : 4121 (0x1019)
Menu ID : 5640 (0x1608)
Format : AVC
Format/Info : Advanced Video Codec
Format profile : [email protected]
Format settings, CABAC : Yes
Format settings, ReFrames : 3 frames
Format settings, GOP : M=4, N=32
Codec ID : 27
Duration : 50mn 24s
Bit rate : 5 260 Kbps
Width : 1 920 pixels
Height : 1 080 pixels
Display aspect ratio : 16:9
Frame rate : 25.000 fps
Standard : Component
Color space : YUV
Chroma subsampling : 4:2:0
Bit depth : 8 bits
Scan type : Interlaced
Scan order : Top Field First
Bits/(Pixel*Frame) : 0.101
Stream size : 1.85 GiB (86%)
Color primaries : BT.709
Transfer characteristics : BT.709
Matrix coefficients : BT.709
Color range : Limited
Audio #4124
ID : 4124 (0x101C)
Menu ID : 5640 (0x1608)
Format : AC-3
Format/Info : Audio Coding 3
Mode extension : CM (complete main)
Format settings, Endianness : Big
Codec ID : 6
Duration : 50mn 24s
Bit rate mode : Constant
Bit rate : 384 Kbps
Channel(s) : 6 channels
Channel positions : Front: L C R, Side: L R, LFE
Sampling rate : 48.0 KHz
Bit depth : 16 bits
Compression mode : Lossy
Delay relative to video : -120ms
Stream size : 138 MiB (6%)
Language : Russian
Audio #4125
ID : 4125 (0x101D)
Menu ID : 5640 (0x1608)
Format : MPEG Audio
Format version : Version 1
Format profile : Layer 2
Codec ID : 3
Duration : 50mn 24s
Bit rate mode : Constant
Bit rate : 192 Kbps
Channel(s) : 2 channels
Sampling rate : 48.0 KHz
Compression mode : Lossy
Delay relative to video : -120ms
Stream size : 69.2 MiB (3%)
Language : Russian
(1) остановить скачивание,
(2) удалить старый торрент у себя из клиента (старые серии удалять не надо),
(3) скачать новый торрент и запустить его у себя в клиенте вместо старого, при этом указать клиенту путь в старую папку куда и должно происходить скачивание новых серий.
Ваш клиент при этом должен произвести хеширование (проверку) старой папки (если не производит сам - помогите ему сделать это), и будет докачивать только те серии которых у вас ещё нет. Старые серии при этом не удаляются, а продолжают раздаваться!
Eсли вы уже удалили старые серии, то предотвратить повторную закачку старых серий можно, отжав галочку в соответсвующих местах при запуске нового торрента. По возможности, желательно не удалять старые серии как можно дольше чтобы релизёр не столько продолжал раздавать старые серии, а смог сконцентрироваться на новых.
Предыдущие и альтернативные раздачи

Трекер:  [ 08-Июн-2018 15:35 ]

  

Скачать .torrent

Размер .torrent файла 93 KB


Размер: 18.54 GB
Хэш (hash) релиза: e6866b79f83866687c719cd8a47ff805418efd4b
Подписка на обновления:

bot

Раздача обновлена!
Перекачайте торрент-файл.

bot

Раздача обновлена!
Перекачайте торрент-файл.

bot

Раздача обновлена!
Перекачайте торрент-файл.

Хотите добавить комментарий к записи скачать торрент Бывшие Серии: 1-8 из 8

!Обратная связь