Rendan (Dragons of Preor #4) | Watch movie | All Languages For Windows 8.1 x32

Скачать через торрент Бывшие Серии: 1-8 из 8 Фильм бесплатно в хорошем качестве torrent

Скачивайте на UnionPeer.org фильмы через торрент без регистрации. Новинки кино в хорошем качестве через торрент. На UnionPeer.org можно скачать через торрент фильмы 2014 и 2015 годов. Самые новые фильмы.

Скачать торрент Бывшие Серии: 1-8 из 8 бесплатно через .torrent фильм мультфильм сериал

Статистика раздачи
Размер:  5.31 GB   |    Зарегистрирован:  13 дней   |    .torrent скачан:  171 раз   |   
Раздают:  1  
   
загрузка...
 
Автор Сообщение

Galfimbul

avatar Galfimbul


Бывшие

Год выпуска: 2018
Производство: Yellow, Black and White
Жанр: Драма, мелодрама
Продолжительность: 00:51:10
Субтитры: нет
Режиссёр: Иван Китаев
В ролях: Любовь Аксёнова, Денис Шведов, Григорий Чабан, Татьяна Волкова (III), Виталий Хаев, Наталья Рогожкина, Софья Лебедева, Владимир Жеребцов, Павел Ворожцов, Сергей Галахов, Софья Урицкая, Сергей Ланбамин, Константин Адаев, Леонид Громов, Виктория Полторак, Сахат Дурсунов, Марина Орёл, Роман Индык, Владимир Стеклов, Любовь Германова, Ольга Лапшина, Василий Кортуков, Даниил Вахрушев, Петар Зекавица, Евгений Сытый, Анатолий Журавлёв
Описание: Яна Миронова, дочь очень богатого чиновника, глубоко несчастна. Сложные, разрушительные отношения в семье и отсутствие друзей отбивают у нее желание быть в реальном мире, давно ставшим отвратительным. Девушка находит самый простой способ решения своих проблем, и через некоторое время становится пациенткой реабилитационной клиники для алкоголиков и наркозависимых. Там она знакомится с Ильей - новым психологом-консультантом. Поначалу Яна для него - очередная сложная пациентка, но постепенно Илья начинает видеть таланты Яны, раскрывающиеся в процессе выздоровления. Зарождаются новые чувства, неожиданные для обоих…
Сэмпл: http://multi-up.com/1200585
Автор рипа: 25Kuzmich
Качество: WEBRip
Формат: AVI
Видео кодек: XviD
Аудио кодек: AC3
Видео: 720x400 (16:9), 25.000 fps, XviD, 1650 Kbps, 0.22 Bits/Pixel
Аудио: 48 kHz, AC3 Dolby Digital, 2 ch, 192 Kbps

Реклама: Нет
General
Complete name : Downloads\Byvshie.WEB-DLRip.25Kuzmich
Format : AVI
Format/Info : Audio Video Interleave
File size : 678 MiB
Duration : 51mn 10s
Overall bit rate : 1 852 Kbps
Writing application : VirtualDubMod 1.5.10.3 | www.virtualdub-fr.org || (build 2550/release)
Writing library : VirtualDubMod build 2550/release
Video #0
ID : 0
Format : MPEG-4 Visual
Format profile : Advanced [email protected]
Format settings, BVOP : 1
Format settings, QPel : No
Format settings, GMC : No warppoints
Format settings, Matrix : Custom
Codec ID : XVID
Codec ID/Hint : XviD
Duration : 51mn 10s
Bit rate : 1 650 Kbps
Width : 720 pixels
Height : 400 pixels
Display aspect ratio : 16:9
Frame rate : 25.000 fps
Color space : YUV
Chroma subsampling : 4:2:0
Bit depth : 8 bits
Scan type : Progressive
Compression mode : Lossy
Bits/(Pixel*Frame) : 0.229
Stream size : 604 MiB (89%)
Writing library : XviD 1.2.1 (UTC 2008-12-04)
Audio #1
ID : 1
Format : AC-3
Format/Info : Audio Coding 3
Mode extension : CM (complete main)
Format settings, Endianness : Big
Codec ID : 2000
Duration : 51mn 10s
Bit rate mode : Constant
Bit rate : 192 Kbps
Channel(s) : 2 channels
Channel positions : Front: L R
Sampling rate : 48.0 KHz
Bit depth : 16 bits
Compression mode : Lossy
Stream size : 70.3 MiB (10%)
Alignment : Split accross interleaves
Interleave, duration : 40 ms (1.00 video frame)
Interleave, preload duration : 500 ms
(1) остановить скачивание,
(2) удалить старый торрент у себя из клиента (старые серии удалять не надо),
(3) скачать новый торрент и запустить его у себя в клиенте вместо старого, при этом указать клиенту путь в старую папку куда и должно происходить скачивание новых серий.
Ваш клиент при этом должен произвести хеширование (проверку) старой папки (если не производит сам - помогите ему сделать это), и будет докачивать только те серии которых у вас ещё нет. Старые серии при этом не удаляются, а продолжают раздаваться!
Eсли вы уже удалили старые серии, то предотвратить повторную закачку старых серий можно, отжав галочку в соответсвующих местах при запуске нового торрента. По возможности, желательно не удалять старые серии как можно дольше чтобы релизёр не столько продолжал раздавать старые серии, а смог сконцентрироваться на новых.
Предыдущие и альтернативные раздачи

Трекер:  [ 08-Июн-2018 11:22 ]

  

Скачать .torrent

Размер .torrent файла 27 KB


Размер: 5.31 GB
Хэш (hash) релиза: a33da053323547a537af93e2aa4cb2e492206f75
Подписка на обновления:

bot

Раздача обновлена!
Перекачайте торрент-файл.

bot

Раздача обновлена!
Перекачайте торрент-файл.

bot

Раздача обновлена!
Перекачайте торрент-файл.

Хотите добавить комментарий к записи скачать торрент Бывшие Серии: 1-8 из 8

!Обратная связь