view all | Hallie York | Animation

Скачать через торрент Славные пташки PLOEY. You Never Fly Alone Фильм бесплатно в хорошем качестве torrent

Скачивайте на UnionPeer.org фильмы через торрент без регистрации. Новинки кино в хорошем качестве через торрент. На UnionPeer.org можно скачать через торрент фильмы 2014 и 2015 годов. Самые новые фильмы.

Скачать торрент Славные пташки PLOEY. You Never Fly Alone бесплатно через .torrent фильм мультфильм сериал

Статистика раздачи
Размер:  1.46 GB   |    Зарегистрирован:  2 месяца 13 дней   |    .torrent скачан:  99 раз   |   
Раздают:  3  
   
загрузка...
 
Автор Сообщение

Galfimbul

avatar Galfimbul


Славные пташки / PLOEY. You Never Fly Alone

Страна: Исландия, Бельгия
Жанр: мультфильм
Год выпуска: 2017
Продолжительность: 01:22:34
Перевод: Профессиональный (дублированный) | iTunes
Субтитры: нет
Оригинальная аудиодорожка: нет
Режиссер:
Аудни Аусгейрссон / Árni Ásgeirsson
В ролях:
Джэми Орам, Харриет Перринг, Иэн Стюарт Робертсон, Ричард Уиллс-Коттон, Торунн Эрна Клаузен, Томас Арнольд, Кайзер Ахтар, Дебби Чейзен
Описание:
Приключения маленького птенца Рыжика и куропатки-отшельника Гайрона. Судьба сводит их вместе, когда Рыжик, отстав от стаи, не смог улететь на юг. Рыжик уговаривает чудаковатого и вечно брюзжащего Гайрона показать ему дорогу в Райскую долину — тайное место в горах, где птицы могут переждать суровую зиму. Путь туда таит немало опасностей. Постепенно неунывающему Рыжику удается растопить сердце старого отшельника. Вместе эта парочка становится друг для друга настоящей семьей, которой по силам свернуть горы.
Качество видео: WEB-DLRip
Формат видео: AVI

Видео: 720x304 (2.37:1), 24.000 fps, XviD build 73 ~2129 kbps avg, 0.41 bit/pixel
Аудио: 48 kHz, AC3 Dolby Digital, 3/2 (L,C,R,l,r) + LFE ch, ~384 kbps
<div class="post-box-default">
<div class="post-box">Сэмпл</div>
</div>
Format                      : AVI
Format/Info                 : Audio Video Interleave
File size                   : 1.46 GiB
Duration                    : 1 h 22 min
Overall bit rate            : 2 523 kb/s
Writing application         : VirtualDubMod 1.5.10.3 | www.virtualdub-fr.org || (build 2550/release)
Writing library             : VirtualDubMod build 2550/release

Video
ID                          : 0
Format                      : MPEG-4 Visual
Format profile              : Advanced [email protected]
Format settings             : BVOP1 / Custom Matrix
Format settings, BVOP       : 1
Format settings, QPel       : No
Format settings, GMC        : No warppoints
Format settings, Matrix     : Custom
Codec ID                    : XVID
Codec ID/Hint               : XviD
Duration                    : 1 h 22 min
Bit rate                    : 2 130 kb/s
Width                       : 720 pixels
Height                      : 304 pixels
Display aspect ratio        : 2.35:1
Frame rate                  : 24.000 FPS
Color space                 : YUV
Chroma subsampling          : 4:2:0
Bit depth                   : 8 bits
Scan type                   : Progressive
Compression mode            : Lossy
Bits/(Pixel*Frame)          : 0.405
Stream size                 : 1.23 GiB (84%)
Writing library             : XviD 73

Audio
ID                          : 1
Format                      : AC-3
Format/Info                 : Audio Coding 3
Codec ID                    : 2000
Duration                    : 1 h 22 min
Bit rate mode               : Constant
Bit rate                    : 384 kb/s
Channel(s)                  : 6 channels
Channel positions           : Front: L C R, Side: L R, LFE
Sampling rate               : 48.0 kHz
Frame rate                  : 31.250 FPS (1536 SPF)
Bit depth                   : 16 bits
Compression mode            : Lossy
Stream size                 : 227 MiB (15%)
Alignment                   : Split accross interleaves
Interleave, duration        : 42  ms (1.00 video frame)
Interleave, preload duratio : 500  ms
Service kind                : Complete Main


Трекер:  [ 04-Июн-2018 21:01 ]

  

Скачать .torrent

Размер .torrent файла 15 KB


Размер: 1.46 GB
Хэш (hash) релиза: 5d3fc1182d0073fd52e92bd149bd3a8be394eaf2
Подписка на обновления:

Торренты, похожие на Славные пташки PLOEY. You Never Fly Alone скачать торрент

Форум Название Автор Размер S L Добавлен
Мультфильмы 2016-2018 (Новинки мультфильмов) ·· Славные пташки / PLOEY. You Never Fly Alone (Аудни Аусгейрссон / Árni Ásgeirsson) [2017, Исландия, Бельгия, мультфильм, WEB-DL 1080р] iTunes Galfimbul 30401600852.83 GB 3 0 1528104193

12:23

4-Июн-18

Еще никто не оставлял запись к записи скачать торрент Славные пташки PLOEY. You Never Fly Alone . Будь первым!

!Обратная связь