Jesse Head | Microsoft Press Books and Microsoft Official Curriculum (MOC), rapidshare download | Ol Parker

Скачать через торрент Опасный бизнес Gringo бесплатно русская версия torrent активатор

Статистика раздачи
Размер:  4.16 GB   |    Зарегистрирован:  2 месяца 14 дней   |    .torrent скачан:  44 раза   |   
Раздают:  1  
   
загрузка...
 
Автор Сообщение

Galfimbul

avatar Galfimbul


Опасный бизнес / Gringo
«An American Corporation, The Mexican Cartel, Chances Are This Won't End Well»

6.474 / 10 6.00 / 10
Год выпуска: 2018
Страна: США
Жанр: Боевик, комедия, криминал
Продолжительность: 01:50:38

Перевод: Дублированный (iTunes)
Оригинальная аудиодорожка: Есть
Cубтитры: Английские
Режиссёр: Нэш Эдгертон
Сценарий: Мэтью Стоун, Энтони Тамбакис
Продюсер: А.Дж. Дикс, Нэш Эдгертон, Бет Коно
Оператор: Эдуард Грау
Композитор: Кристоф Бек
Художник: Патрис Верметт, Карлос Й. Хакес, Пол Д. Келли
Монтаж: Люк Дулан, Дэвид Ренни, Татьяна С. Ригел
В ролях: Джоэл Эдгертон, Шарлиз Терон, Дэвид Ойелоуо, Тэнди Ньютон, Башир Салахуддин, Гленн Кубота, Мелони Диас, Аманда Сайфред, Гарри Тредэвэй, Тео Таплитц

Сборы в США: $4 969 853
Сборы в мире: + $4 864 883 = $9 834 736
Сборы в России: $681 299

Мировая премьера: 8 марта 2018
Премьера (РФ): 19 апреля 2018, «Вольга»

Цифровой релиз: 24 мая 2018, «Вольга»

Описание: Дерзкая длинноногая блондинка — она идеально подходит для опасного бизнеса. Однажды одному из ее подчиненных становится известна уникальная формула, за которой гоняется весь мир. Он решает инсценировать собственное похищение и потребовать выкуп у компании. Лучше этому умнику не рассчитывать на помощь своей эффектной начальницы, ведь для корпорации он предпочтительнее мертвый, чем живой.
Качество исходника: BDRemux (NNMClub)
Качество: BDRip
Тип: HD (720p)
Контейнер: M4V
Видео: H.264, 1280x544, 2.35:1, 3 500 Kbps, 23.976 (24000/1001) fps

Аудио 1: Русский/Дублированный (iTunes), AAC / 2.0 / 160 Kbps / 48.0 KHz
Аудио 2: Английский/Оригинальная дорожка , AAC / 2.0 / 160 Kbps / 48.0 KHz
Аудио 3: Украинский/Дублированный (iTunes), AAC / 2.0 / 160 Kbps / 48.0 KHz
Аудио 4: Русский/Дублированный (iTunes), AC-3 / 5.1 / 384 Kbps / 48.0 KHz
Аудио 5: Английский/Оригинальная дорожка , AC-3 / 5.1 / 640 Kbps / 48.0 KHz
Аудио 6: Украинский/Дублированный (iTunes), AC-3 / 5.1 / 384 Kbps / 48.0 KHz

Субтитры: Английские полные
Sort Name: Gringo
XID: Apple:vendor_id:2018-958501
contentID: 1351890249
Copyright: © 2018 Universal Studios. All Rights Reserved.
Screenwriters: Мэтью Стоун, Энтони Тамбакис
Producers: А.Дж. Дикс, Нэш Эдгертон, Бет Коно
Director: Нэш Эдгертон
Cast: Джоэл Эдгертон, Шарлиз Терон, Дэвид Ойелоуо, Тэнди Ньютон, Башир Салахуддин, Гленн Кубота, Мелони Диас, Аманда Сайфред, Гарри Тредэвэй, Тео Таплитц
Studio: Amazon Studios
Rating: 5
Long Description: Дерзкая длинноногая блондинка - она идеально подходит для опасного бизнеса. Однажды одному из ее подчиненных становится известна уникальная формула, за которой гоняется весь мир. Он решает инсценировать собственное похищение и потребовать выкуп у компании. Лучше этому умнику не рассчитывать на помощь своей эффектной начальницы, ведь для корпорации он предпочтительнее мертвый, чем живой.
Description: Дерзкая длинноногая блондинка - она идеально подходит для опасного бизнеса. Однажды одному из ее подчиненных становится известна уникальная формула, за которой гоняется весь мир. Он решает инсценировать собственное похищение и потребовать выкуп у компании. Лучше этому умнику не рассчитывать на помощь своей эффектной начальницы, ведь для корпорации он предпочтительнее мертвый, чем живой.
Release Date: 2018-03-08T08:00:00Z
Genre: Comedy
Artist: Nash Edgerton
Name: Gringo
General
Complete name                            : /Users/imac/HandBrake/Gringo (720p HD).m4v
Format                                   : MPEG-4
Codec ID                                 : M4V  (M4V /M4A /mp42/isom)
File size                                : 4.16 GiB
Duration                                 : 1h 50mn
Overall bit rate mode                    : Variable
Overall bit rate                         : 5 384 Kbps
Movie name                               : Gringo
Performer                                : Nash Edgerton
Director                                 : Нэш Эдгертон
Actor                                    : Джоэл Эдгертон / Шарлиз Терон / Дэвид Ойелоуо / Тэнди Ньютон / Башир Салахуддин / Гленн Кубота / Мелони Диас / Аманда Сайфред / Гарри Тредэвэй / Тео Таплитц
Screenplay by                            : Мэтью Стоун / Энтони Тамбакис
Producer                                 : А.Дж. Дикс / Нэш Эдгертон / Бет Коно
Production studio                        : Amazon Studios
Genre                                    : Comedy
ContentType                              : Short Film
Description                              : Дерзкая длинноногая блондинка - она идеально подходит для опасного бизнеса. Однажды одному из ее подчиненных становится известна уникальная формула, за которой гоняется весь мир. Он решает инсценировать собственное похищение и потребовать выкуп у компании. Лучше этому умнику не рассчитывать на помощь своей эффектной начальницы, ведь для корпорации он предпочтительнее мертвый, чем живой.
Recorded date                            : UTC 2018-03-08 08:00:00
Encoded date                             : UTC 2018-06-04 09:26:34
Tagged date                              : UTC 2018-06-04 09:30:39
Copyright                                : © 2018 Universal Studios. All Rights Reserved.
Cover                                    : Yes
Rating                                   : None
Title/Sort                               : Gringo
LongDescription                          : Дерзкая длинноногая блондинка - она идеально подходит для опасного бизнеса. Однажды одному из ее подчиненных становится известна уникальная формула, за которой гоняется весь мир. Он решает инсценировать собственное похищение и потребовать выкуп у компании. Лучше этому умнику не рассчитывать на помощь своей эффектной начальницы, ведь для корпорации он предпочтительнее мертвый, чем живой.
HDVideo                                  : Yes
AppleStoreCatalogID                      : 1351890249
Vendor                                   : Apple:vendor_id:2018-958501
ContentRating                            : mpaa|R|400|

Video #1
ID                                       : 1
Format                                   : AVC
Format/Info                              : Advanced Video Codec
Format profile                           : [email protected]
Format settings                          : 3 Ref Frames
Format settings, CABAC                   : No
Format settings, ReFrames                : 3 frames
Codec ID                                 : avc1
Codec ID/Info                            : Advanced Video Coding
Duration                                 : 1h 50mn
Source duration                          : 1h 50mn
Bit rate                                 : 3 500 Kbps
Width                                    : 1 280 pixels
Height                                   : 544 pixels
Display aspect ratio                     : 2.35:1
Frame rate mode                          : Variable
Frame rate                               : 23.976 (24000/1001) fps
Minimum frame rate                       : 23.974 fps
Maximum frame rate                       : 23.981 fps
Color space                              : YUV
Chroma subsampling                       : 4:2:0
Bit depth                                : 8 bits
Scan type                                : Progressive
Bits/(Pixel*Frame)                       : 0.210
Stream size                              : 2.70 GiB (65%)
Source stream size                       : 2.70 GiB (65%)
Title                                    : Main Program
Writing library                          : x264 core 155 r2893 b00bcaf
Encoding settings                        : cabac=0 / ref=3 / deblock=1:-3:-3 / analyse=0x3:0x113 / me=umh / subme=9 / psy=1 / psy_rd=1.00:0.15 / mixed_ref=1 / me_range=32 / chroma_me=1 / trellis=0 / 8x8dct=1 / cqm=0 / deadzone=21,11 / fast_pskip=0 / chroma_qp_offset=-2 / threads=17 / lookahead_threads=1 / sliced_threads=0 / nr=0 / decimate=0 / interlaced=0 / bluray_compat=0 / constrained_intra=0 / bframes=3 / b_pyramid=0 / b_adapt=2 / b_bias=0 / direct=1 / weightb=0 / open_gop=0 / weightp=0 / keyint=240 / keyint_min=24 / scenecut=40 / intra_refresh=0 / rc_lookahead=40 / rc=2pass / mbtree=1 / bitrate=3500 / ratetol=1.0 / qcomp=0.65 / qpmin=0 / qpmax=69 / qpstep=4 / cplxblur=20.0 / qblur=0.5 / vbv_maxrate=9500 / vbv_bufsize=9500 / nal_hrd=none / filler=0 / ip_ratio=1.40 / aq=1:1.10
Language                                 : English
Encoded date                             : UTC 2018-06-04 09:26:34
Tagged date                              : UTC 2018-06-04 09:26:41
Color range                              : Limited
Color primaries                          : BT.709
Transfer characteristics                 : BT.709
Matrix coefficients                      : BT.709
Menus                                    : 9,10

Video #2
ID                                       : 10
Format                                   : JPEG
Codec ID                                 : jpeg
Duration                                 : 1h 50mn
Bit rate mode                            : Variable
Bit rate                                 : 750 bps
Width                                    : 640 pixels
Height                                   : 272 pixels
Display aspect ratio                     : 2.35:1
Frame rate mode                          : Variable
Frame rate                               : 0.003 fps
Minimum frame rate                       : 0.002 fps
Maximum frame rate                       : 0.007 fps
Color space                              : YUV
Chroma subsampling                       : 4:2:0
Bit depth                                : 8 bits
Compression mode                         : Lossy
Bits/(Pixel*Frame)                       : 1.436
Stream size                              : 610 KiB (0%)
Title                                    : Chapter Images
Language                                 : English
Default                                  : No
Encoded date                             : UTC 2018-06-04 09:27:56
Tagged date                              : UTC 2018-06-04 09:27:57
Menu For                                 : 1
ColorSpace_ICC                           : RGB

Audio #1
ID                                       : 2
Format                                   : AAC
Format/Info                              : Advanced Audio Codec
Format profile                           : LC
Codec ID                                 : mp4a-40-2
Duration                                 : 1h 50mn
Source duration                          : 1h 50mn
Bit rate mode                            : Variable
Bit rate                                 : 156 Kbps
Maximum bit rate                         : 252 Kbps
Channel(s)                               : 2 channels
Channel positions                        : Front: L R
Sampling rate                            : 48.0 KHz
Frame rate                               : 46.875 fps (1024 SPF)
Compression mode                         : Lossy
Stream size                              : 123 MiB (3%)
Source stream size                       : 123 MiB (3%)
Title                                    : Russian Stereo
Language                                 : Russian
Default                                  : Yes
Alternate group                          : 1
Encoded date                             : UTC 2018-06-04 09:26:34
Tagged date                              : UTC 2018-06-04 09:27:51
Fallback From                            : 5

Audio #2
ID                                       : 3
Format                                   : AAC
Format/Info                              : Advanced Audio Codec
Format profile                           : LC
Codec ID                                 : mp4a-40-2
Duration                                 : 1h 50mn
Source duration                          : 1h 50mn
Bit rate mode                            : Variable
Bit rate                                 : 152 Kbps
Maximum bit rate                         : 262 Kbps
Channel(s)                               : 2 channels
Channel positions                        : Front: L R
Sampling rate                            : 48.0 KHz
Frame rate                               : 46.875 fps (1024 SPF)
Compression mode                         : Lossy
Stream size                              : 121 MiB (3%)
Source stream size                       : 121 MiB (3%)
Title                                    : English Stereo
Language                                 : English
Default                                  : No
Alternate group                          : 1
Encoded date                             : UTC 2018-06-04 09:26:34
Tagged date                              : UTC 2018-06-04 09:27:51
Fallback From                            : 6

Audio #3
ID                                       : 4
Format                                   : AAC
Format/Info                              : Advanced Audio Codec
Format profile                           : LC
Codec ID                                 : mp4a-40-2
Duration                                 : 1h 50mn
Source duration                          : 1h 50mn
Bit rate mode                            : Variable
Bit rate                                 : 156 Kbps
Maximum bit rate                         : 251 Kbps
Channel(s)                               : 2 channels
Channel positions                        : Front: L R
Sampling rate                            : 48.0 KHz
Frame rate                               : 46.875 fps (1024 SPF)
Compression mode                         : Lossy
Stream size                              : 123 MiB (3%)
Source stream size                       : 123 MiB (3%)
Title                                    : Ukrainian Stereo
Language                                 : Ukrainian
Default                                  : No
Alternate group                          : 1
Encoded date                             : UTC 2018-06-04 09:26:34
Tagged date                              : UTC 2018-06-04 09:27:51
Fallback From                            : 7

Audio #4
ID                                       : 5
Format                                   : AC-3
Format/Info                              : Audio Coding 3
Codec ID                                 : ac-3
Duration                                 : 1h 50mn
Bit rate mode                            : Constant
Bit rate                                 : 384 Kbps
Channel(s)                               : 6 channels
Channel positions                        : Front: L C R, Side: L R, LFE
Sampling rate                            : 48.0 KHz
Frame rate                               : 31.250 fps (1536 SPF)
Bit depth                                : 16 bits
Compression mode                         : Lossy
Stream size                              : 304 MiB (7%)
Title                                    : Russian DD 5.1
Language                                 : Russian
Service kind                             : Complete Main
Default                                  : Inherited From: 2
Alternate group                          : 1
Encoded date                             : UTC 2018-06-04 09:26:34
Tagged date                              : UTC 2018-06-04 09:27:51
Fallback To                              : 2

Audio #5
ID                                       : 6
Format                                   : AC-3
Format/Info                              : Audio Coding 3
Codec ID                                 : ac-3
Duration                                 : 1h 50mn
Bit rate mode                            : Constant
Bit rate                                 : 640 Kbps
Channel(s)                               : 6 channels
Channel positions                        : Front: L C R, Side: L R, LFE
Sampling rate                            : 48.0 KHz
Frame rate                               : 31.250 fps (1536 SPF)
Bit depth                                : 16 bits
Compression mode                         : Lossy
Stream size                              : 506 MiB (12%)
Title                                    : English DD 5.1
Language                                 : English
Service kind                             : Complete Main
Default                                  : No
Alternate group                          : 1
Encoded date                             : UTC 2018-06-04 09:26:34
Tagged date                              : UTC 2018-06-04 09:27:51
Fallback To                              : 3

Audio #6
ID                                       : 7
Format                                   : AC-3
Format/Info                              : Audio Coding 3
Codec ID                                 : ac-3
Duration                                 : 1h 50mn
Bit rate mode                            : Constant
Bit rate                                 : 384 Kbps
Channel(s)                               : 6 channels
Channel positions                        : Front: L C R, Side: L R, LFE
Sampling rate                            : 48.0 KHz
Frame rate                               : 31.250 fps (1536 SPF)
Bit depth                                : 16 bits
Compression mode                         : Lossy
Stream size                              : 304 MiB (7%)
Title                                    : Ukrainian DD 5.1
Language                                 : Ukrainian
Service kind                             : Complete Main
Default                                  : No
Alternate group                          : 1
Encoded date                             : UTC 2018-06-04 09:26:34
Tagged date                              : UTC 2018-06-04 09:27:51
Fallback To                              : 4

Text
ID                                       : 8
Format                                   : Timed Text
Muxing mode                              : sbtl
Codec ID                                 : tx3g
Duration                                 : 1h 45mn
Bit rate mode                            : Variable
Bit rate                                 : 75 bps
Stream size                              : 57.8 KiB (0%)
Title                                    : English full
Language                                 : English
Default                                  : Yes
Forced                                   : No
Alternate group                          : 2
Encoded date                             : UTC 2018-06-04 09:26:34
Tagged date                              : UTC 2018-06-04 09:27:47

Menu #1
00:00:00.000                             : 00:00:00.000
00:02:29.024                             : 00:02:29.024
00:08:36.808                             : 00:08:36.808
00:14:49.389                             : 00:14:49.388
00:19:43.057                             : 00:19:43.057
00:26:11.195                             : 00:26:11.195
00:29:59.548                             : 00:29:59.548
00:34:12.676                             : 00:34:12.676
00:41:59.600                             : 00:41:59.600
00:49:14.702                             : 00:49:14.702
00:57:12.304                             : 00:57:12.304
01:02:56.940                             : 01:02:56.940
01:09:40.551                             : 01:09:40.551
01:16:20.951                             : 01:16:20.951
01:20:38.125                             : 01:20:38.125
01:25:53.857                             : 01:25:53.857
01:29:14.224                             : 01:29:14.224
01:33:46.704                             : 01:33:46.704
01:39:06.524                             : 01:39:06.524
01:43:28.869                             : 01:43:28.869

Menu #2
ID                                       : 9
Codec ID                                 : text
Duration                                 : 1h 50mn
Language                                 : English
Encoded date                             : UTC 2018-06-04 09:27:51
Tagged date                              : UTC 2018-06-04 09:27:51
Bit rate mode                            : CBR
Menu For                                 : 1
00:00:00.000                             : 00:00:00.000
00:02:29.024                             : 00:02:29.024
00:08:36.808                             : 00:08:36.808
00:14:49.389                             : 00:14:49.388
00:19:43.057                             : 00:19:43.057
00:26:11.195                             : 00:26:11.195
00:29:59.548                             : 00:29:59.548
00:34:12.676                             : 00:34:12.676
00:41:59.600                             : 00:41:59.600
00:49:14.702                             : 00:49:14.702
00:57:12.304                             : 00:57:12.304
01:02:56.940                             : 01:02:56.940
01:09:40.551                             : 01:09:40.551
01:16:20.951                             : 01:16:20.951
01:20:38.125                             : 01:20:38.125
01:25:53.857                             : 01:25:53.857
01:29:14.224                             : 01:29:14.224
01:33:46.704                             : 01:33:46.704
01:39:06.524                             : 01:39:06.524
01:43:28.869                             : 01:43:28.869
x264 [info]: frame I:1805  Avg QP:12.02  size:111940
x264 [info]: frame P:54388 Avg QP:14.41  size: 33760
x264 [info]: frame B:102970 Avg QP:15.48  size:  8411
x264 [info]: consecutive B-frames:  3.5% 20.0% 32.6% 44.0%
x264 [info]: mb I  I16..4:  7.0% 65.0% 28.0%
x264 [info]: mb P  I16..4:  1.4%  5.3%  2.0%  P16..4: 43.4% 31.2% 13.8%  0.0%  0.0%    skip: 3.0%
x264 [info]: mb B  I16..4:  0.1%  0.5%  0.2%  B16..8: 44.7% 15.4%  2.3%  direct: 3.2%  skip:33.5%  L0:42.7% L1:49.9% BI: 7.3%
x264 [info]: 8x8 transform intra:62.4% inter:38.9%
x264 [info]: coded y,uvDC,uvAC intra: 85.6% 85.8% 73.3% inter: 24.6% 22.6% 15.5%
x264 [info]: i16 v,h,dc,p: 49% 11%  8% 32%
x264 [info]: i8 v,h,dc,ddl,ddr,vr,hd,vl,hu: 11%  9%  9% 10% 13% 13% 12% 12% 11%
x264 [info]: i4 v,h,dc,ddl,ddr,vr,hd,vl,hu: 11% 10%  4% 11% 16% 15% 13% 11%  9%
x264 [info]: i8c dc,h,v,p: 54% 16% 19% 10%
x264 [info]: ref P L0: 67.8% 19.3% 12.9%
x264 [info]: ref B L0: 75.4% 24.6%
x264 [info]: kb/s:3499.98

Релиз подготовлен для просмотра на Apple TV, iPad, iPhone, iPod Touch.
Для просмотра данного релиза на компьютере с ОС Windows рекомендуется использовать VLC media player

Трекер:  [ 04-Июн-2018 13:06 ]

  

Скачать .torrent

Размер .torrent файла 42 KB


Размер: 4.16 GB
Хэш (hash) релиза: 869fd09ceb8ab5c725b0b862c524699f11402ff6

Еще никто не оставлял запись к записи скачать торрент Опасный бизнес Gringo . Будь первым!

!Обратная связь