Novelas Sombras del ayer 1x90 | Hellboy (2004) | Ep.12 7 Still 17 (2018)

Скачать через торрент Славные пташки PLOEY. You Never Fly Alone Фильм бесплатно в хорошем качестве torrent

Скачивайте на UnionPeer.org фильмы через торрент без регистрации. Новинки кино в хорошем качестве через торрент. На UnionPeer.org можно скачать через торрент фильмы 2014 и 2015 годов. Самые новые фильмы.

Скачать торрент Славные пташки PLOEY. You Never Fly Alone бесплатно через .torrent фильм мультфильм сериал

Статистика раздачи
Размер:  2.83 GB   |    Зарегистрирован:  2 месяца 13 дней   |    .torrent скачан:  196 раз   |   
Раздают:  4  
   
загрузка...
 
Автор Сообщение

Galfimbul

avatar Galfimbul


Славные пташки / PLOEY. You Never Fly Alone

Страна: Исландия Бельгия
Производство: Cyborn, GunHil
Год выпуска: 2018
Жанр: мультфильм, приключения
Продолжительность: 01:22:34

Режиссер: Аудни Аусгейрссон
Автор сценария: Фридрик Эрлингссон

В ролях: Джэми Орам, Харриет Перринг, Иэн Стюарт Робертсон, Ричард Уиллс-Коттон, Торунн Эрна Клаузен, Томас Арнольд, Кайзер Ахтар, Дебби Чейзен

Описание: Приключения маленького птенца Рыжика и куропатки-отшельника Гайрона. Судьба сводит их вместе, когда Рыжик, отстав от стаи, не смог улететь на юг. Рыжик уговаривает чудаковатого и вечно брюзжащего Гайрона показать ему дорогу в Райскую долину — тайное место в горах, где птицы могут переждать суровую зиму. Путь туда таит немало опасностей. Постепенно неунывающему Рыжику удаётся растопить сердце старого отшельника. Вместе эта парочка становится друг для друга настоящей семьёй, которой по силам свернуть горы...



Перевод: Профессиональный (полное дублирование) | iTunes
Субтитры: нет
Качество: WEB-DL 1080р
Формат: МКV
Видео кодек: AVC
Аудио кодек: АС3
Видео: 1920x804 (2.40:1), 24.000 fps, MPEG-4 AVC ~4 428 kbps avg
Аудио: 48.0 kHz, AC3 Dolby Digital, 3/2 (L,C,R,l,r) + LFE ch, ~384 kbps

Дата премьеры (мир): 2 февраля 2018
Дата премьеры (РФ): 12 апреля 2018, «Наше Кино»
General
Unique ID : 89931129228148187841369108333528759169 (0x43A81B002ADD1BE38D4E6E655A023B81)
Complete name : PLOEY. You Never Fly Alone (2018) WEB-DL 1080р.mkv
Format : Matroska
Format version : Version 4 / Version 2
File size : 2.83 GiB
Duration : 1h 22mn
Overall bit rate : 4 909 Kbps
Encoded date : UTC 2018-06-03 18:43:42
Writing application : mkvmerge v23.0.0 ('The Bride Said No') 32-bit
Writing library : libebml v1.3.6 + libmatroska v1.4.9
DURATION : 01:22:33.917000000
NUMBER_OF_FRAMES : 118895
NUMBER_OF_BYTES : 2801231238
_STATISTICS_WRITING_APP : mkvmerge v23.0.0 ('The Bride Said No') 32-bit
_STATISTICS_WRITING_DATE_UTC : 2018-06-03 18:43:42
_STATISTICS_TAGS : BPS DURATION NUMBER_OF_FRAMES NUMBER_OF_BYTES

Video
ID : 2
Format : AVC
Format/Info : Advanced Video Codec
Format profile : [email protected]
Format settings, CABAC : Yes
Format settings, ReFrames : 5 frames
Codec ID : V_MPEG4/ISO/AVC
Duration : 1h 22mn
Bit rate : 4 428 Kbps
Width : 1 920 pixels
Height : 804 pixels
Display aspect ratio : 2.40:1
Frame rate mode : Constant
Frame rate : 24.000 fps
Color space : YUV
Chroma subsampling : 4:2:0
Bit depth : 8 bits
Scan type : Progressive
Bits/(Pixel*Frame) : 0.120
Stream size : 2.55 GiB (90%)
Language : English
Default : Yes
Forced : No
Color range : Limited
Color primaries : BT.709
Transfer characteristics : BT.709
Matrix coefficients : BT.709

Audio
ID : 1
Format : AC-3
Format/Info : Audio Coding 3
Mode extension : CM (complete main)
Format settings, Endianness : Big
Codec ID : A_AC3
Duration : 1h 22mn
Bit rate mode : Constant
Bit rate : 384 Kbps
Channel(s) : 6 channels
Channel positions : Front: L C R, Side: L R, LFE
Sampling rate : 48.0 KHz
Compression mode : Lossy
Delay relative to video : -42ms
Stream size : 227 MiB (8%)
Language : Russian
Default : Yes
Forced : No

Menu
00:00:00.000 : en:Глава 1
00:05:37.666 : en:Глава 2
00:11:16.374 : en:Глава 3
00:17:59.457 : en:Глава 4
00:23:10.623 : en:Глава 5
00:28:29.248 : en:Глава 6
00:35:23.998 : en:Глава 7
00:41:04.039 : en:Глава 8
00:47:12.330 : en:Глава 9
00:54:50.705 : en:Глава 10
01:00:24.288 : en:Глава 11
01:05:02.246 : en:Глава 12
01:09:39.662 : en:Глава 13
01:14:56.578 : en:Глава 14
Источник http://blator.org

Трекер:  [ 04-Июн-2018 12:20 ]

  

Скачать .torrent

Размер .torrent файла 14 KB


Размер: 2.83 GB
Хэш (hash) релиза: 9e7888956e275098afc65dc63f7ff0180b2fb97c
Подписка на обновления:

Торренты, похожие на Славные пташки PLOEY. You Never Fly Alone скачать торрент

Форум Название Автор Размер S L Добавлен
Мультфильмы до 2016 ·· Славные пташки / PLOEY. You Never Fly Alone (Аудни Аусгейрссон / Árni Ásgeirsson) [2017, Исландия, Бельгия, мультфильм, WEB-DLRip] [Локализованный видеоряд] Dub (iTunes) Galfimbul 15624929281.46 GB 0 0 1528135286

21:01

4-Июн-18

Еще никто не оставлял запись к записи скачать торрент Славные пташки PLOEY. You Never Fly Alone . Будь первым!

!Обратная связь