Running Man Episode 350 | Luke Cage - Tráiler #2 (Netflix) | Dramat / Obyczajowy

Скачать через торрент «Международная пилорама» с Тиграном Кеосаяном Фильм бесплатно в хорошем качестве torrent

Скачивайте на UnionPeer.org фильмы через торрент без регистрации. Новинки кино в хорошем качестве через торрент. На UnionPeer.org можно скачать через торрент фильмы 2014 и 2015 годов. Самые новые фильмы.

Скачать торрент «Международная пилорама» с Тиграном Кеосаяном бесплатно через .torrent фильм мультфильм сериал

Статистика раздачи
Размер:  2.53 GB   |    Зарегистрирован:  19 дней   |    .torrent скачан:  37 раз   |   
Раздают:  1  
   
загрузка...
 
Автор Сообщение

Galfimbul

avatar Galfimbul


«Международная пилорама» с Тиграном Кеосаяном (2018.06.02)

Дата/Год выпуска: 2018
Страна: Россия
Жанр: Юмористическое политическое шоу
Продолжительность: 00:34:12
Перевод: Не требуется
Русские субтитры: нет

Оригинальная аудиодорожка: русский
Телеканал: НТВ
Описание: «Международная пилорама» с Тиграном Кеосаяном (2018.06.02)

«Международная пилорама» сэкономит время телезрителей. Следить за политической обстановкой в мире, колебаниями курсов валют и новостями шоу-бизнеса теперь вовсе не обязательно. Каждую субботу Тигран Эдмондович в свойственной ему язвительной манере будет разбирать события мировой политики. Под огонь его едких комментариев попадут многие — от журналистов до политических лидеров.


Каждый украинский депутат в своей жизни должен сделать три вещи: отсидеть в тюрьме, украсть миллиард и принять нелепый закон. На этот раз украинские законотворцы предложили признать незаконной трансляцию ЧМ-2018.

Согласно древней японской традиции, когда весенний ветер игриво шелестит в кронах деревьев, а улитка начинает свой долгий путь к вершине Фудзиямы, в Россию прилетает премьер-министр Японии. Что обсуждали на встрече Владимир Путин и Синдзо Абэ?

Сколько стоит неподкупность? Личный адвокат президента США Майкл Коэн получил по меньшей мере 400 тысяч долларов за организацию встречи Петра Порошенко с Дональдом Трампом.

Событий его жизни хватит на несколько сезонов остросюжетного детективного сериала! Специальный гость программы — Андрей Луговой. Депутат Госдумы рассказал о санкциях, проверке на детекторе лжи, а также о том, кого охранять легче — политиков или звезд эстрады.
[b]качество: HDTV 1080i
формат: TS
Видео: AVC, 1920x1080, (16:9), 25 fps, 9 858 kb/s
Аудио: RUS, MP2, 2 ch, 48 KHz, 192 Kbps
GeneralID : 1 (0x1)Complete name : C:\Международная пилорама с Тиграном Кеосаяном 2018.06.02.tsFormat : MPEG-TSFile size : 2.53 GiBDuration : 34 min 12 sOverall bit rate mode : VariableOverall bit rate : 10.6 Mb/s

VideoID : 201 (0xC9)Menu ID : 2201 (0x899)Format : AVCFormat/Info : Advanced Video CodecFormat profile : [email protected] settings : CABAC / 4 Ref FramesFormat settings, CABAC : YesFormat settings, RefFrames : 4 framesCodec ID : 27Duration : 34 min 12 sBit rate : 9 858 kb/sWidth : 1 920 pixelsHeight : 1 080 pixelsDisplay aspect ratio : 16:9Frame rate : 25.000 FPSStandard : ComponentColor space : YUVChroma subsampling : 4:2:0Bit depth : 8 bitsScan type : InterlacedScan type, store method : Separated fieldsScan order : Top Field FirstBits/(Pixel*Frame) : 0.190Stream size : 2.36 GiB (93%)Color range : LimitedColor primaries : BT.709Transfer characteristics : BT.709Matrix coefficients : BT.709

AudioID : 301 (0x12D)Menu ID : 2201 (0x899)Format : MPEG AudioFormat version : Version 1Format profile : Layer 2Codec ID : 3Duration : 34 min 12 sBit rate mode : ConstantBit rate : 192 kb/sChannel(s) : 2 channelsSampling rate : 48.0 kHzFrame rate : 41.667 FPS (1152 SPF)Compression mode : LossyDelay relative to video : -40 msStream size : 47.0 MiB (2%)Language : Russian


Трекер:  [ 04-Июн-2018 12:12 ]

  

Скачать .torrent

Размер .torrent файла 13 KB


Размер: 2.53 GB
Хэш (hash) релиза: 5a11c99a112624e5866f0aa2b4749c19f602b65c
Подписка на обновления:

Торренты, похожие на «Международная пилорама» с Тиграном Кеосаяном скачать торрент

Форум Название Автор Размер S L Добавлен
Развлекательные телепередачи и шоу ·· «Международная пилорама» с Тиграном Кеосаяном (2018.06.10) [2018, Юмористическое политическое шоу, HDTV 1080i, RUS] Galfimbul 22187838962.07 GB 0 0 1529217727

09:42

17-Июн-18

Развлекательные телепередачи и шоу ·· «Международная пилорама» с Тиграном Кеосаяном (2018.06.16) [2018, Юмористическое политическое шоу, HDTV 1080i, RUS] Galfimbul 23803007122.22 GB 0 0 1529215926

09:12

17-Июн-18

Развлекательные телепередачи и шоу ·· «Международная пилорама» с Тиграном Кеосаяном (2018.05.26) [2018, Юмористическое политическое шоу, HDTVRip 1080p] Galfimbul 15364156131.43 GB 0 0 1527408728

11:12

27-Май-18

Развлекательные телепередачи и шоу ·· «Международная пилорама» с Тиграном Кеосаяном (2018.05.19) [2018, Юмористическое политическое шоу, HDTVRip 1080i] Galfimbul 18088264871.68 GB 0 0 1527149533

11:12

24-Май-18

Развлекательные телепередачи и шоу ·· «Международная пилорама» с Тиграном Кеосаяном (2018.05.12) [2018, Юмористическое политическое шоу, HDTV 1080i] Galfimbul 31427309522.93 GB 0 0 1526402531

19:42

15-Май-18

Развлекательные телепередачи и шоу ·· Международная пилорама с Тиграном Кеосаяном (2018.04.21) [2018, Юмористическое политическое шоу, HDTV 1080i] Galfimbul 20173052361.88 GB 0 0 1524467527

10:12

23-Апр-18

Развлекательные телепередачи и шоу ·· Международная пилорама с Тиграном Кеосаяном 2018.04.14 [2018, Юмористическое политическое шоу, DVB] Galfimbul 893802308852 MB 0 0 1524211930

11:12

20-Апр-18

Развлекательные телепередачи и шоу ·· Международная пилорама с Тиграном Кеосаяном 2018.04.07 [2018, Юмористическое политическое шоу, HDTV 1080i] Galfimbul 25884425592.41 GB 0 0 1523337126

08:12

10-Апр-18

Развлекательные телепередачи и шоу ·· Международная пилорама с Тиграном Кеосаяном 2018.03.24 [2018, Юмористическое политическое шоу, HDTV 1080i] Galfimbul 30761408812.86 GB 0 0 1522042931

08:42

26-Мар-18

Развлекательные телепередачи и шоу ·· Международная пилорама с Тиграном Кеосаяном 2018.03.17 [2018, Юмористическое политическое шоу, HDTV 1080i] Galfimbul 24308681302.26 GB 0 0 1521412930

01:42

19-Мар-18

Развлекательные телепередачи и шоу ·· Международная пилорама с Тиграном Кеосаяном 2018.03.10 [2018, Юмористическое политическое шоу, HDTV 1080i] Galfimbul 27903732692.6 GB 0 0 1521115930

15:12

15-Мар-18

Развлекательные телепередачи и шоу ·· Международная пилорама с Тиграном Кеосаяном 2018.03.03 [2018, Юмористическое политическое шоу, HDTV 1080i] Galfimbul 20821307001.94 GB 0 0 1520286278

00:44

6-Мар-18

Развлекательные телепередачи и шоу ·· Международная пилорама с Тиграном Кеосаяном 2018.02.10 [2018, Юмористическое политическое шоу, HDTVRip 1080p, RUS] Galfimbul 885403261844 MB 0 0 1518414308

08:45

12-Фев-18

Развлекательные телепередачи и шоу ·· Международная пилорама с Тиграном Кеосаяном 2018.01.21 [21.01.2018, Юмористическое политическое шоу, DVB] Galfimbul 737085201703 MB 0 0 1516698929

12:15

23-Янв-18

Развлекательные телепередачи и шоу ·· Международная пилорама с Тиграном Кеосаяном 2017.10.28 [5, 5, PDTVRip] Galfimbul 30372396402.83 GB 0 0 1509232561

02:16

29-Окт-17

Развлекательные телепередачи и шоу ·· Международная пилорама с Тиграном Кеосаяном 2017.05.28 [2017, Юмористическое политическое шоу, HDTVRip 720p] Galfimbul 904773493863 MB 0 0 1496059469

15:04

29-Май-17

Развлекательные телепередачи и шоу ·· Международная пилорама с Тиграном Кеосаяном 2017.05.28 [2017, Юмористическое политическое шоу, HDTV 1080i] Galfimbul 34680997323.23 GB 0 0 1496004937

23:55

28-Май-17

Еще никто не оставлял запись к записи скачать торрент «Международная пилорама» с Тиграном Кеосаяном . Будь первым!

!Обратная связь