Correio da Manhã – 16 de Agosto 2018 | Mortal Kombat X Update 10 Incl DLC and Crack | 5/?? Tập Thin Thịnh Trường Ca Phim Trung Quốc 2018

Скачать через торрент И.Р.К.О. Воплощение A.I.C.O. Incarnation бесплатно Аниме Все серии на русском torrent

Статистика раздачи
Размер:  12.19 GB   |    Зарегистрирован:  2 месяца 13 дней   |    .torrent скачан:  58 раз   |   
Раздают:  1  
   
загрузка...
 
Автор Сообщение

Galfimbul

avatar Galfimbul


И.Р.К.О. Воплощение / A.I.C.O. Incarnation / A.I.C.O. Инкарнация



Страна: Япония
Год выпуска: 2018 г.
Жанр: Приключения, фантастика, меха,
Тип: ONA
Продолжительность: 11 эпизодов по ~24 минуты, эп. 12 ~28 минут
Режиссер: Мурата Кадзуя
Студия: BONES



Перевод:

Русские субтитры: MedusaSub (полные+надписи)
Переводчик: jikito (эп. 01-03), iuh_petuh (эп. 04-05), Maddesson (эп. 06-07), Emerald_Splash (эп. 08-10), Велес (эп. 11-12)
Редактор: mutterblue

Озвучка: SHIZA Project
- многоголосая: Dancel, Meliodez, OkanaTsoy, Viki - Semple
По переводу: MedusaSub
Работа со звуком и тайминг: Black-eyed



Описание : Ближайшее будущее, Япония, 2035 год. Взрыв — масштабный инцидент, вызванный изучением искусственных организмов, который привёл к прорыву из исследовательского центра одного из них, впоследствии названного Материей, и его распространению по всему ущелью Куробэ. Из-за этого правительство запретило доступ в целый исследовательский город, ранее провозглашавшийся надеждой всего человечества.Два года спустя пятнадцатилетняя Айко Тачибана, потерявшая во время Взрыва всю свою семью, узнаёт от переведённого ученика Юи Канзаки невероятную правду о произошедшем инциденте и о секрете, скрытом в её собственном теле. Остальные части этой головоломки лежат в Первичной Точке — эпицентре Взрыва. Поэтому Айко вместе с Юей в качестве проводника и в сопровождении команды дайверов — людей в специальных органических костюмах, выполняющих миссии на поглощённой Материей территории, — отправляется в глубину запретной зоны, чтобы выяснить всю правду.

Доп. информация: A.I.C.O. Artificial Intelligent Cellular Organism - И.Р.К.О. Искусственный Разумный Клеточный Организм



world-art | AniDB | MyAnimeList | Офиц. Сайт



Автор рипа : HorribleSubs

Качество: WEBRip
Тип релиза: Без хардсаба
Формат видео: MKV
Наличие линковки: Нет
Видео: AVC, 1920x1080 (16:9), 3160 kbps, 23.976 fps, 8bit
Аудио : Японский, E-AC-3, 128 Кбит/с, 48.0 kHz, 2 ch (в составе контейнера)
Субтитры (ASS): Английские (в составе контейнера) - Перевод: Брайан Атей
Субтитры (ASS): Испанские, Французские, Немецкие, Итальянские (в составе контейнера)

Аудио: Русский, AAC, 192 Кбит/с, 48.0 kHz, 2 ch (внешним файлам)
Субтитры (ASS): Русские (внешними файлами)
01. Катализатор / Contact
02. Цель / Target
03. Решение / Decision
04. Неожиданная встреча / Encounter
05. Воспоминание / Memory
06. Пробуждение / Awakening
07. Прорыв / Breakthrough
08. Путь / Way
09. Истина / Truth
10. Воля / Volition
11. Приверженность / Devotion
12. Перерождение / Reincarnation
General
Unique ID : 0 (0x0)
Complete name : E:/Torrent_2/A.I.C.O. Incarnation (2018, BDRip-1080p, RUS JAP+SUB [Multi Sub])/[HorribleSubs] A.I.C.O. - Incarnation - 01 [1080p].mkv
Format : Matroska
Format version : Version 4 / Version 2
File size : 571 MiB
Duration : 24mn 31s
Overall bit rate mode : Variable
Overall bit rate : 3 253 Kbps
Encoded date : UTC 2018-01-26 22:57:39
Writing application : no_variable_data
Writing library : Lavf58.0.0
Attachment : Yes

Video #1
ID : 1
Format : AVC
Format/Info : Advanced Video Codec
Format profile : [email protected]
Format settings, CABAC : Yes
Format settings, ReFrames : 3 frames
Codec ID : V_MPEG4/ISO/AVC
Duration : 24mn 31s
Bit rate mode : Variable
Bit rate : 3 160 Kbps
Maximum bit rate : 4 740 Kbps
Width : 1 920 pixels
Height : 1 080 pixels
Display aspect ratio : 16:9
Frame rate mode : Constant
Frame rate : 23.976 fps
Color space : YUV
Chroma subsampling : 4:2:0
Bit depth : 8 bits
Scan type : Progressive
Bits/(Pixel*Frame) : 0.064
Stream size : 537 MiB (94%)
Writing library : x264 core 148 r2714 2daf636
Encoding settings : cabac=1 / ref=3 / deblock=1:0:0 / analyse=0x1:0x111 / me=umh / subme=10 / psy=1 / psy_rd=1.00:0.00 / mixed_ref=1 / me_range=24 / chroma_me=1 / trellis=2 / 8x8dct=0 / cqm=0 / deadzone=21,11 / fast_pskip=1 / chroma_qp_offset=-2 / threads=8 / lookahead_threads=1 / sliced_threads=0 / nr=0 / decimate=1 / interlaced=0 / bluray_compat=0 / stitchable=1 / constrained_intra=0 / bframes=2 / b_pyramid=0 / b_adapt=2 / b_bias=0 / direct=3 / weightb=1 / open_gop=0 / weightp=2 / keyint=48 / keyint_min=25 / scenecut=0 / intra_refresh=0 / rc_lookahead=48 / rc=2pass / mbtree=1 / bitrate=3160 / ratetol=1.0 / qcomp=0.50 / qpmin=6 / qpmax=51 / qpstep=4 / cplxblur=20.0 / qblur=0.5 / vbv_maxrate=4740 / vbv_bufsize=6320 / nal_hrd=vbr / filler=0 / ip_ratio=1.40 / aq=1:1.00
Default : Yes
Forced : No
Encoded date : UTC 2018-01-26 22:57:39
HANDLER_NAME : Audio Media Handler
DURATION : 00:24:31.904000000
NUMBER_OF_FRAMES : 45997
NUMBER_OF_BYTES : 23550464
_STATISTICS_WRITING_APP : no_variable_data
_STATISTICS_WRITING_DATE_UTC : 1970-01-01 00:00:00
_STATISTICS_TAGS : BPS DURATION NUMBER_OF_FRAMES NUMBER_OF_BYTES

Audio #2
ID : 2
Format : E-AC-3
Format/Info : Audio Coding 3
Format settings, Endianness : Big
Codec ID : A_EAC3
Duration : 24mn 31s
Bit rate mode : Constant
Bit rate : 128 Kbps
Channel(s) : 2 channels
Channel positions : Front: L R
Sampling rate : 48.0 KHz
Compression mode : Lossy
Stream size : 22.5 MiB (4%)
Default : Yes
Forced : No
DURATION : 00:24:31.762000000
NUMBER_OF_FRAMES : 35287
NUMBER_OF_BYTES : 574220154
_STATISTICS_WRITING_APP : no_variable_data
_STATISTICS_WRITING_DATE_UTC : 1970-01-01 00:00:00
_STATISTICS_TAGS : BPS DURATION NUMBER_OF_FRAMES NUMBER_OF_BYTES

Text #3
ID : 3
Format : ASS
Codec ID : S_TEXT/ASS
Codec ID/Info : Advanced Sub Station Alpha
Compression mode : Lossless
Title : English
Language : English
Default : Yes
Forced : Yes
DURATION : 00:23:48.850000000
NUMBER_OF_FRAMES : 284
NUMBER_OF_BYTES : 13935
_STATISTICS_WRITING_APP : no_variable_data
_STATISTICS_WRITING_DATE_UTC : 1970-01-01 00:00:00
_STATISTICS_TAGS : BPS DURATION NUMBER_OF_FRAMES NUMBER_OF_BYTES

Text #4
ID : 4
Format : ASS
Codec ID : S_TEXT/ASS
Codec ID/Info : Advanced Sub Station Alpha
Compression mode : Lossless
Title : Spanish
Language : Spanish
Default : No
Forced : No
DURATION : 00:24:07.950000000
NUMBER_OF_FRAMES : 289
NUMBER_OF_BYTES : 14822
_STATISTICS_WRITING_APP : no_variable_data
_STATISTICS_WRITING_DATE_UTC : 1970-01-01 00:00:00
_STATISTICS_TAGS : BPS DURATION NUMBER_OF_FRAMES NUMBER_OF_BYTES

Text #5
ID : 5
Format : ASS
Codec ID : S_TEXT/ASS
Codec ID/Info : Advanced Sub Station Alpha
Compression mode : Lossless
Title : French
Language : French
Default : No
Forced : No
DURATION : 00:24:05.950000000
NUMBER_OF_FRAMES : 293
NUMBER_OF_BYTES : 15201
_STATISTICS_WRITING_APP : no_variable_data
_STATISTICS_WRITING_DATE_UTC : 1970-01-01 00:00:00
_STATISTICS_TAGS : BPS DURATION NUMBER_OF_FRAMES NUMBER_OF_BYTES

Text #6
ID : 6
Format : ASS
Codec ID : S_TEXT/ASS
Codec ID/Info : Advanced Sub Station Alpha
Compression mode : Lossless
Title : German
Language : German
Default : No
Forced : No
DURATION : 00:24:07.870000000
NUMBER_OF_FRAMES : 275
NUMBER_OF_BYTES : 15078
_STATISTICS_WRITING_APP : no_variable_data
_STATISTICS_WRITING_DATE_UTC : 1970-01-01 00:00:00
_STATISTICS_TAGS : BPS DURATION NUMBER_OF_FRAMES NUMBER_OF_BYTES

Text #7
ID : 7
Format : ASS
Codec ID : S_TEXT/ASS
Codec ID/Info : Advanced Sub Station Alpha
Compression mode : Lossless
Title : Italian
Language : Italian
Default : No
Forced : No
DURATION : 00:24:05.740000000
NUMBER_OF_FRAMES : 279
NUMBER_OF_BYTES : 14058
_STATISTICS_WRITING_APP : no_variable_data
_STATISTICS_WRITING_DATE_UTC : 1970-01-01 00:00:00
_STATISTICS_TAGS : BPS DURATION NUMBER_OF_FRAMES NUMBER_OF_BYTES
Моя максимальная скорость отдачи 100КБ/c
Раздаю с 7:00 до 00:00 по Москве

Трекер:  [ 04-Июн-2018 11:30 ]

  

Скачать .torrent

Размер .torrent файла 35 KB


Размер: 12.19 GB
Хэш (hash) релиза: 56204cd086c89ee7939efdc57fefbeb8b22b708c
Подписка на обновления:

Еще никто не оставлял запись к записи скачать торрент И.Р.К.О. Воплощение A.I.C.O. Incarnation . Будь первым!

!Обратная связь