OMG Clip | Best Rivalry | Short Match

Скачать через торрент [ATV3] Опасный бизнес Gringo бесплатно русская версия torrent активатор

Статистика раздачи
Размер:  7.64 GB   |    Зарегистрирован:  21 день   |    .torrent скачан:  40 раз   |   
Раздают:  1  
   
загрузка...
 
Автор Сообщение

Galfimbul

avatar Galfimbul


Опасный бизнес / Gringo
«An American Corporation, The Mexican Cartel, Chances Are This Won't End Well»

6.474 / 10 6.00 / 10
Год выпуска: 2018
Страна: США
Жанр: Боевик, комедия, криминал
Продолжительность: 01:50:38

Перевод: Дублированный (iTunes)
Оригинальная аудиодорожка: Есть
Cубтитры: Английские
Режиссёр: Нэш Эдгертон
Сценарий: Мэтью Стоун, Энтони Тамбакис
Продюсер: А.Дж. Дикс, Нэш Эдгертон, Бет Коно
Оператор: Эдуард Грау
Композитор: Кристоф Бек
Художник: Патрис Верметт, Карлос Й. Хакес, Пол Д. Келли
Монтаж: Люк Дулан, Дэвид Ренни, Татьяна С. Ригел
В ролях: Джоэл Эдгертон, Шарлиз Терон, Дэвид Ойелоуо, Тэнди Ньютон, Башир Салахуддин, Гленн Кубота, Мелони Диас, Аманда Сайфред, Гарри Тредэвэй, Тео Таплитц

Сборы в США: $4 969 853
Сборы в мире: + $4 864 883 = $9 834 736
Сборы в России: $681 299

Мировая премьера: 8 марта 2018
Премьера (РФ): 19 апреля 2018, «Вольга»

Цифровой релиз: 24 мая 2018, «Вольга»

Описание: Дерзкая длинноногая блондинка — она идеально подходит для опасного бизнеса. Однажды одному из ее подчиненных становится известна уникальная формула, за которой гоняется весь мир. Он решает инсценировать собственное похищение и потребовать выкуп у компании. Лучше этому умнику не рассчитывать на помощь своей эффектной начальницы, ведь для корпорации он предпочтительнее мертвый, чем живой.
Качество исходника: BDRemux (NNMClub)
Качество: BDRip
Тип: HD (1080p)
Контейнер: M4V
Видео: H.264, 1920x800, 2.40:1, 8 000 Kbps, 23.976 (24000/1001) fps

Аудио 1: Русский/Дублированный (iTunes), AAC / 2.0 / 160 Kbps / 48.0 KHz
Аудио 2: Английский/Оригинальная дорожка , AAC / 2.0 / 160 Kbps / 48.0 KHz
Аудио 3: Украинский/Дублированный (iTunes), AAC / 2.0 / 160 Kbps / 48.0 KHz
Аудио 4: Русский/Дублированный (iTunes), AC-3 / 5.1 / 384 Kbps / 48.0 KHz
Аудио 5: Английский/Оригинальная дорожка , AC-3 / 5.1 / 640 Kbps / 48.0 KHz
Аудио 6: Украинский/Дублированный (iTunes), AC-3 / 5.1 / 384 Kbps / 48.0 KHz

Субтитры: Английские полные
Sort Name: Gringo
XID: Apple:vendor_id:2018-958501
contentID: 1351890249
Copyright: © 2018 Universal Studios. All Rights Reserved.
Screenwriters: Мэтью Стоун, Энтони Тамбакис
Producers: А.Дж. Дикс, Нэш Эдгертон, Бет Коно
Director: Нэш Эдгертон
Cast: Джоэл Эдгертон, Шарлиз Терон, Дэвид Ойелоуо, Тэнди Ньютон, Башир Салахуддин, Гленн Кубота, Мелони Диас, Аманда Сайфред, Гарри Тредэвэй, Тео Таплитц
Studio: Amazon Studios
Rating: 5
Long Description: Дерзкая длинноногая блондинка - она идеально подходит для опасного бизнеса. Однажды одному из ее подчиненных становится известна уникальная формула, за которой гоняется весь мир. Он решает инсценировать собственное похищение и потребовать выкуп у компании. Лучше этому умнику не рассчитывать на помощь своей эффектной начальницы, ведь для корпорации он предпочтительнее мертвый, чем живой.
Description: Дерзкая длинноногая блондинка - она идеально подходит для опасного бизнеса. Однажды одному из ее подчиненных становится известна уникальная формула, за которой гоняется весь мир. Он решает инсценировать собственное похищение и потребовать выкуп у компании. Лучше этому умнику не рассчитывать на помощь своей эффектной начальницы, ведь для корпорации он предпочтительнее мертвый, чем живой.
Release Date: 2018-03-08T08:00:00Z
Genre: Comedy
Artist: Nash Edgerton
Name: Gringo
General
Complete name                            : /Users/imac/HandBrake/Gringo (1080p HD).m4v
Format                                   : MPEG-4
Codec ID                                 : M4V  (M4V /M4A /mp42/isom)
File size                                : 7.64 GiB
Duration                                 : 1h 50mn
Overall bit rate mode                    : Variable
Overall bit rate                         : 9 884 Kbps
Movie name                               : Gringo
Performer                                : Nash Edgerton
Director                                 : Нэш Эдгертон
Actor                                    : Джоэл Эдгертон / Шарлиз Терон / Дэвид Ойелоуо / Тэнди Ньютон / Башир Салахуддин / Гленн Кубота / Мелони Диас / Аманда Сайфред / Гарри Тредэвэй / Тео Таплитц
Screenplay by                            : Мэтью Стоун / Энтони Тамбакис
Producer                                 : А.Дж. Дикс / Нэш Эдгертон / Бет Коно
Production studio                        : Amazon Studios
Genre                                    : Comedy
ContentType                              : Short Film
Description                              : Дерзкая длинноногая блондинка - она идеально подходит для опасного бизнеса. Однажды одному из ее подчиненных становится известна уникальная формула, за которой гоняется весь мир. Он решает инсценировать собственное похищение и потребовать выкуп у компании. Лучше этому умнику не рассчитывать на помощь своей эффектной начальницы, ведь для корпорации он предпочтительнее мертвый, чем живой.
Recorded date                            : UTC 2018-03-08 08:00:00
Encoded date                             : UTC 2018-06-03 23:43:20
Tagged date                              : UTC 2018-06-03 23:47:39
Copyright                                : © 2018 Universal Studios. All Rights Reserved.
Cover                                    : Yes
Rating                                   : None
Title/Sort                               : Gringo
LongDescription                          : Дерзкая длинноногая блондинка - она идеально подходит для опасного бизнеса. Однажды одному из ее подчиненных становится известна уникальная формула, за которой гоняется весь мир. Он решает инсценировать собственное похищение и потребовать выкуп у компании. Лучше этому умнику не рассчитывать на помощь своей эффектной начальницы, ведь для корпорации он предпочтительнее мертвый, чем живой.
AppleStoreCatalogID                      : 1351890249
Vendor                                   : Apple:vendor_id:2018-958501
ContentRating                            : mpaa|R|400|

Video #1
ID                                       : 1
Format                                   : AVC
Format/Info                              : Advanced Video Codec
Format profile                           : [email protected]
Format settings                          : CABAC / 4 Ref Frames
Format settings, CABAC                   : Yes
Format settings, ReFrames                : 4 frames
Codec ID                                 : avc1
Codec ID/Info                            : Advanced Video Coding
Duration                                 : 1h 50mn
Source duration                          : 1h 50mn
Bit rate                                 : 8 000 Kbps
Width                                    : 1 920 pixels
Height                                   : 800 pixels
Display aspect ratio                     : 2.40:1
Frame rate mode                          : Variable
Frame rate                               : 23.976 (24000/1001) fps
Minimum frame rate                       : 23.974 fps
Maximum frame rate                       : 23.981 fps
Color space                              : YUV
Chroma subsampling                       : 4:2:0
Bit depth                                : 8 bits
Scan type                                : Progressive
Bits/(Pixel*Frame)                       : 0.217
Stream size                              : 6.18 GiB (81%)
Source stream size                       : 6.18 GiB (81%)
Title                                    : Main Program
Writing library                          : x264 core 155 r2893 b00bcaf
Encoding settings                        : cabac=1 / ref=4 / deblock=1:-2:-2 / analyse=0x3:0x133 / me=umh / subme=10 / psy=1 / psy_rd=1.00:0.15 / mixed_ref=1 / me_range=32 / chroma_me=1 / trellis=2 / 8x8dct=1 / cqm=0 / deadzone=21,11 / fast_pskip=1 / chroma_qp_offset=-3 / threads=25 / lookahead_threads=6 / sliced_threads=0 / nr=0 / decimate=0 / interlaced=0 / bluray_compat=0 / constrained_intra=0 / bframes=16 / b_pyramid=2 / b_adapt=2 / b_bias=0 / direct=3 / weightb=1 / open_gop=0 / weightp=2 / keyint=240 / keyint_min=24 / scenecut=40 / intra_refresh=0 / rc_lookahead=40 / rc=2pass / mbtree=1 / bitrate=8000 / ratetol=1.0 / qcomp=0.70 / qpmin=0 / qpmax=69 / qpstep=4 / cplxblur=20.0 / qblur=0.5 / ip_ratio=1.40 / aq=1:1.00
Language                                 : English
Encoded date                             : UTC 2018-06-03 23:43:20
Tagged date                              : UTC 2018-06-03 23:43:37
Color range                              : Limited
Color primaries                          : BT.709
Transfer characteristics                 : BT.709
Matrix coefficients                      : BT.709
Menus                                    : 9,10

Video #2
ID                                       : 10
Format                                   : JPEG
Codec ID                                 : jpeg
Duration                                 : 1h 50mn
Bit rate mode                            : Variable
Bit rate                                 : 738 bps
Width                                    : 640 pixels
Height                                   : 266 pixels
Display aspect ratio                     : 2.40:1
Frame rate mode                          : Variable
Frame rate                               : 0.003 fps
Minimum frame rate                       : 0.002 fps
Maximum frame rate                       : 0.007 fps
Color space                              : YUV
Chroma subsampling                       : 4:2:0
Bit depth                                : 8 bits
Compression mode                         : Lossy
Bits/(Pixel*Frame)                       : 1.445
Stream size                              : 601 KiB (0%)
Title                                    : Chapter Images
Language                                 : English
Default                                  : No
Encoded date                             : UTC 2018-06-03 23:43:52
Tagged date                              : UTC 2018-06-03 23:43:53
Menu For                                 : 1
ColorSpace_ICC                           : RGB

Audio #1
ID                                       : 2
Format                                   : AAC
Format/Info                              : Advanced Audio Codec
Format profile                           : LC
Codec ID                                 : mp4a-40-2
Duration                                 : 1h 50mn
Source duration                          : 1h 50mn
Bit rate mode                            : Variable
Bit rate                                 : 156 Kbps
Maximum bit rate                         : 252 Kbps
Channel(s)                               : 2 channels
Channel positions                        : Front: L R
Sampling rate                            : 48.0 KHz
Frame rate                               : 46.875 fps (1024 SPF)
Compression mode                         : Lossy
Stream size                              : 123 MiB (2%)
Source stream size                       : 123 MiB (2%)
Title                                    : Russian Stereo
Language                                 : Russian
Default                                  : Yes
Alternate group                          : 1
Encoded date                             : UTC 2018-06-03 23:43:20
Tagged date                              : UTC 2018-06-03 23:43:43
Fallback From                            : 5
Menus                                    : 9

Audio #2
ID                                       : 3
Format                                   : AAC
Format/Info                              : Advanced Audio Codec
Format profile                           : LC
Codec ID                                 : mp4a-40-2
Duration                                 : 1h 50mn
Source duration                          : 1h 50mn
Bit rate mode                            : Variable
Bit rate                                 : 152 Kbps
Maximum bit rate                         : 262 Kbps
Channel(s)                               : 2 channels
Channel positions                        : Front: L R
Sampling rate                            : 48.0 KHz
Frame rate                               : 46.875 fps (1024 SPF)
Compression mode                         : Lossy
Stream size                              : 121 MiB (2%)
Source stream size                       : 121 MiB (2%)
Title                                    : English Stereo
Language                                 : English
Default                                  : No
Alternate group                          : 1
Encoded date                             : UTC 2018-06-03 23:43:20
Tagged date                              : UTC 2018-06-03 23:43:43
Fallback From                            : 6

Audio #3
ID                                       : 4
Format                                   : AAC
Format/Info                              : Advanced Audio Codec
Format profile                           : LC
Codec ID                                 : mp4a-40-2
Duration                                 : 1h 50mn
Source duration                          : 1h 50mn
Bit rate mode                            : Variable
Bit rate                                 : 156 Kbps
Maximum bit rate                         : 251 Kbps
Channel(s)                               : 2 channels
Channel positions                        : Front: L R
Sampling rate                            : 48.0 KHz
Frame rate                               : 46.875 fps (1024 SPF)
Compression mode                         : Lossy
Stream size                              : 123 MiB (2%)
Source stream size                       : 123 MiB (2%)
Title                                    : Ukrainian Stereo
Language                                 : Ukrainian
Default                                  : No
Alternate group                          : 1
Encoded date                             : UTC 2018-06-03 23:43:20
Tagged date                              : UTC 2018-06-03 23:43:43
Fallback From                            : 7

Audio #4
ID                                       : 5
Format                                   : AC-3
Format/Info                              : Audio Coding 3
Codec ID                                 : ac-3
Duration                                 : 1h 50mn
Bit rate mode                            : Constant
Bit rate                                 : 384 Kbps
Channel(s)                               : 6 channels
Channel positions                        : Front: L C R, Side: L R, LFE
Sampling rate                            : 48.0 KHz
Frame rate                               : 31.250 fps (1536 SPF)
Bit depth                                : 16 bits
Compression mode                         : Lossy
Stream size                              : 304 MiB (4%)
Title                                    : Russian DD 5.1
Language                                 : Russian
Service kind                             : Complete Main
Default                                  : Inherited From: 2
Alternate group                          : 1
Encoded date                             : UTC 2018-06-03 23:43:20
Tagged date                              : UTC 2018-06-03 23:43:33
Fallback To                              : 2

Audio #5
ID                                       : 6
Format                                   : AC-3
Format/Info                              : Audio Coding 3
Codec ID                                 : ac-3
Duration                                 : 1h 50mn
Bit rate mode                            : Constant
Bit rate                                 : 640 Kbps
Channel(s)                               : 6 channels
Channel positions                        : Front: L C R, Side: L R, LFE
Sampling rate                            : 48.0 KHz
Frame rate                               : 31.250 fps (1536 SPF)
Bit depth                                : 16 bits
Compression mode                         : Lossy
Stream size                              : 506 MiB (6%)
Title                                    : English DD 5.1
Language                                 : English
Service kind                             : Complete Main
Default                                  : No
Alternate group                          : 1
Encoded date                             : UTC 2018-06-03 23:43:20
Tagged date                              : UTC 2018-06-03 23:43:33
Fallback To                              : 3

Audio #6
ID                                       : 7
Format                                   : AC-3
Format/Info                              : Audio Coding 3
Codec ID                                 : ac-3
Duration                                 : 1h 50mn
Bit rate mode                            : Constant
Bit rate                                 : 384 Kbps
Channel(s)                               : 6 channels
Channel positions                        : Front: L C R, Side: L R, LFE
Sampling rate                            : 48.0 KHz
Frame rate                               : 31.250 fps (1536 SPF)
Bit depth                                : 16 bits
Compression mode                         : Lossy
Stream size                              : 304 MiB (4%)
Title                                    : Ukrainian DD 5.1
Language                                 : Ukrainian
Service kind                             : Complete Main
Default                                  : No
Alternate group                          : 1
Encoded date                             : UTC 2018-06-03 23:43:20
Tagged date                              : UTC 2018-06-03 23:43:33
Fallback To                              : 4

Text
ID                                       : 8
Format                                   : Timed Text
Muxing mode                              : sbtl
Codec ID                                 : tx3g
Duration                                 : 1h 45mn
Bit rate mode                            : Variable
Bit rate                                 : 75 bps
Stream size                              : 57.8 KiB (0%)
Title                                    : English full
Language                                 : English
Default                                  : Yes
Forced                                   : No
Alternate group                          : 2
Encoded date                             : UTC 2018-06-03 23:43:20
Tagged date                              : UTC 2018-06-03 23:43:20

Menu #1
00:00:00.000                             : 00:00:00.000
00:02:29.024                             : 00:02:29.024
00:08:36.808                             : 00:08:36.808
00:14:49.389                             : 00:14:49.388
00:19:43.057                             : 00:19:43.057
00:26:11.195                             : 00:26:11.195
00:29:59.548                             : 00:29:59.548
00:34:12.676                             : 00:34:12.676
00:41:59.600                             : 00:41:59.600
00:49:14.702                             : 00:49:14.702
00:57:12.304                             : 00:57:12.304
01:02:56.940                             : 01:02:56.940
01:09:40.551                             : 01:09:40.551
01:16:20.951                             : 01:16:20.951
01:20:38.125                             : 01:20:38.125
01:25:53.857                             : 01:25:53.857
01:29:14.224                             : 01:29:14.224
01:33:46.704                             : 01:33:46.704
01:39:06.524                             : 01:39:06.524
01:43:28.869                             : 01:43:28.869

Menu #2
ID                                       : 9
Codec ID                                 : text
Duration                                 : 1h 50mn
Language                                 : English
Encoded date                             : UTC 2018-06-03 23:43:43
Tagged date                              : UTC 2018-06-03 23:43:43
Bit rate mode                            : CBR
Menu For                                 : 2,1
00:00:00.000                             : 00:00:00.000
00:02:29.024                             : 00:02:29.024
00:08:36.808                             : 00:08:36.808
00:14:49.389                             : 00:14:49.388
00:19:43.057                             : 00:19:43.057
00:26:11.195                             : 00:26:11.195
00:29:59.548                             : 00:29:59.548
00:34:12.676                             : 00:34:12.676
00:41:59.600                             : 00:41:59.600
00:49:14.702                             : 00:49:14.702
00:57:12.304                             : 00:57:12.304
01:02:56.940                             : 01:02:56.940
01:09:40.551                             : 01:09:40.551
01:16:20.951                             : 01:16:20.951
01:20:38.125                             : 01:20:38.125
01:25:53.857                             : 01:25:53.857
01:29:14.224                             : 01:29:14.224
01:33:46.704                             : 01:33:46.704
01:39:06.524                             : 01:39:06.524
01:43:28.869                             : 01:43:28.869
x264 [info]: frame I:1266  Avg QP:13.05  size:228126
x264 [info]: frame P:33377 Avg QP:15.98  size: 75568
x264 [info]: frame B:124520 Avg QP:16.28  size: 30734
x264 [info]: consecutive B-frames:  2.5%  2.3%  6.7% 14.6% 18.7% 39.5%  8.2%  2.0%  1.8%  1.0%  1.0%  0.3%  0.6%  0.4%  0.1%  0.1%  0.3%
x264 [info]: mb I  I16..4: 17.2% 67.7% 15.1%
x264 [info]: mb P  I16..4:  2.4% 15.7%  1.3%  P16..4: 37.3% 24.1% 14.9%  0.6%  0.3%    skip: 3.4%
x264 [info]: mb B  I16..4:  0.3%  1.7%  0.1%  B16..8: 39.4% 14.5%  3.8%  direct: 7.4%  skip:32.9%  L0:43.9% L1:43.2% BI:12.9%
x264 [info]: 8x8 transform intra:79.5% inter:43.8%
x264 [info]: direct mvs  spatial:98.7% temporal:1.3%
x264 [info]: coded y,uvDC,uvAC intra: 88.7% 87.2% 74.3% inter: 29.4% 29.3% 13.4%
x264 [info]: i16 v,h,dc,p: 32%  9% 22% 37%
x264 [info]: i8 v,h,dc,ddl,ddr,vr,hd,vl,hu: 10%  9% 17%  9% 11% 11% 11% 11% 12%
x264 [info]: i4 v,h,dc,ddl,ddr,vr,hd,vl,hu: 10% 10%  6% 10% 14% 14% 13% 11% 12%
x264 [info]: i8c dc,h,v,p: 53% 19% 16% 12%
x264 [info]: Weighted P-Frames: Y:1.8% UV:0.9%
x264 [info]: ref P L0: 54.1%  8.0% 26.8% 10.7%  0.4%  0.0%
x264 [info]: ref B L0: 81.6% 15.4%  3.0%
x264 [info]: ref B L1: 92.2%  7.8%
x264 [info]: kb/s:7999.60

Релиз подготовлен для просмотра на Apple TV, iPad, iPhone, iPod Touch.
Для просмотра данного релиза на компьютере с ОС Windows рекомендуется использовать VLC media player

Трекер:  [ 04-Июн-2018 03:36 ]

  

Скачать .torrent

Размер .torrent файла 77 KB


Размер: 7.64 GB
Хэш (hash) релиза: 820517152a4777a6573723797573f0c2b3a05911

Еще никто не оставлял запись к записи скачать торрент [ATV3] Опасный бизнес Gringo . Будь первым!

!Обратная связь