EPISÓDIO 23 | Alan Chun-Kwong Luk | Lauren Terp

Скачать через торрент Что? Где? Когда? Летняя серия. Вторая Игра Фильм бесплатно в хорошем качестве torrent

Скачивайте на UnionPeer.org фильмы через торрент без регистрации. Новинки кино в хорошем качестве через торрент. На UnionPeer.org можно скачать через торрент фильмы 2014 и 2015 годов. Самые новые фильмы.

Скачать торрент Что? Где? Когда? Летняя серия. Вторая Игра бесплатно через .torrent фильм мультфильм сериал

Статистика раздачи
Размер:  4.09 GB   |    Зарегистрирован:  20 дней   |    .torrent скачан:  48 раз   |   
Раздают:  1  
   
загрузка...
 
Автор Сообщение

Galfimbul

avatar Galfimbul


Что? Где? Когда? Летняя серия. Вторая Игра

Дата/Год выпуска: 03.06.2018
Страна: Россия
Жанр: Телеигра
Продолжительность: 00:59:02
Перевод: Не требуется
Телеканал: Первый HD
Описание: Вторая Игра Летней Серии 2018г Элитарного клуба ЧГК

Доп. информация: Команда Алеся Мухина

1. Вера Рабкина
2. Дарья Соловей
3. Николай Крапиль
4. Михаил Малкин
5. Станислав Мереминский
6. Алесь Мухин

качество: HDTV 1080i
формат: TS/M2TS
Видео: AVC at 8851 Кбит/сек Aspect : 1920 x 1080 (1.778) at 25.000 fps
Аудио: AC-3 at 384 Кбит/сек Infos : 6 каналов, 48,0 КГц
Аудио 2: MPEG Audio at 192 Кбит/сек Infos : 2 канала, 48,0 КГц
ОбщееИдентификатор : 1 (0x1)Полное имя : E:\CINEMA\ЧГК.03.06.2018.HDTV.1080i.Doc66.tsФормат : MPEG-TSРазмер файла : 4,09 ГбайтПродолжительность : 59 м.Режим общего битрейта : ПеременныйОбщий поток : 9924 Кбит/сек

ВидеоИдентификатор : 205 (0xCD)Идентификатор меню : 20105 (0x4E89)Формат : AVCФормат/Информация : Advanced Video CodecПрофиль формата : [email protected]Параметр CABAC формата : ДаПараметр ReFrames формата : 4 кадраИдентификатор кодека : 27Продолжительность : 59 м.Битрейт : 8851 Кбит/секШирина : 1920 пикселейВысота : 1080 пикселейСоотношение сторон : 16:9Частота кадров : 25,000 кадров/секСтандарт вещания : ComponentЦветовое пространство : YUVСубдискретизация насыщенности : 4:2:0Битовая глубина : 8 битТип развёртки : ЧересстрочнаяПорядок развёртки : Верхнее поле первоеБит/(Пиксели*Кадры) : 0.171Размер потока : 3,65 Гбайт (89%)Цветовой диапазон : LimitedОсновные цвета : BT.709Характеристики трансфера : BT.709Коэффициенты матрицы : BT.709

Аудио #1Идентификатор : 305 (0x131)Идентификатор меню : 20105 (0x4E89)Формат : AC-3Формат/Информация : Audio Coding 3Расширение режима : CM (complete main)Параметр Endianness формата : BigИдентификатор кодека : 6Продолжительность : 59 м.Вид битрейта : ПостоянныйБитрейт : 384 Кбит/секКаналы : 6 каналовРасположение каналов : Front: L C R, Side: L R, LFEЧастота : 48,0 КГцМетод сжатия : С потерямиРазмер потока : 162 Мбайт (4%)Язык : Russian

Аудио #2Идентификатор : 306 (0x132)Идентификатор меню : 20105 (0x4E89)Формат : MPEG AudioВерсия формата : Version 1Профиль формата : Layer 2Идентификатор кодека : 3Продолжительность : 59 м.Вид битрейта : ПостоянныйБитрейт : 192 Кбит/секКаналы : 2 каналаЧастота : 48,0 КГцМетод сжатия : С потерямиРазмер потока : 81,1 Мбайт (2%)Язык : Russian

Текст #1Идентификатор : 307 (0x133)-100Идентификатор меню : 20105 (0x4E89)Формат : TeletextЯзык : Russian

Текст #2Идентификатор : 307 (0x133)-888Идентификатор меню : 20105 (0x4E89)Формат : Teletext SubtitleЯзык : RussianЯзык, дополнительно : For hearing impaired people

МенюИдентификатор : 105 (0x69)Идентификатор меню : 20105 (0x4E89)Продолжительность : 59 м.Список : 205 (0xCD) (AVC) / 305 (0x131) (AC-3, Russian) / 306 (0x132) (MPEG Audio, Russian) / 307 (0x133) ()Язык : / Russian / Russian


Трекер:  [ 04-Июн-2018 00:42 ]

  

Скачать .torrent

Размер .torrent файла 21 KB


Размер: 4.09 GB
Хэш (hash) релиза: 6a5c7214c273757254c345616a40bc25ce557355
Подписка на обновления:

Торренты, похожие на Что? Где? Когда? Летняя серия. Вторая Игра скачать торрент

Форум Название Автор Размер S L Добавлен
Развлекательные телепередачи и шоу ·· Что? Где? Когда? - Летняя серия игр 2015 года - Игра вторая (Эфир 07.06.2015) (Борис Крюк) [2015, Интеллектуальная игра, HDTV 1080i] Galfimbul 47364932444.41 GB 0 0 1434489190

00:13

17-Июн-15

Еще никто не оставлял запись к записи скачать торрент Что? Где? Когда? Летняя серия. Вторая Игра . Будь первым!

!Обратная связь