Oreob4by [videos] | Detective Laura Diamond | Season 5 Episode 21 The Hawking Excitation

Скачать через торрент Ледниковый период. Дети 2018.06.03 Лучшее Фильм бесплатно в хорошем качестве torrent

Скачивайте на UnionPeer.org фильмы через торрент без регистрации. Новинки кино в хорошем качестве через торрент. На UnionPeer.org можно скачать через торрент фильмы 2014 и 2015 годов. Самые новые фильмы.

Скачать торрент Ледниковый период. Дети 2018.06.03 Лучшее бесплатно через .torrent фильм мультфильм сериал

Статистика раздачи
Размер:  9.1 GB   |    Зарегистрирован:  20 дней   |    .torrent скачан:  30 раз   |   
Раздают:  1  
   
загрузка...
 
Автор Сообщение

Galfimbul

avatar Galfimbul


Ледниковый период. Дети 2018.06.03 Лучшее

Дата/Год выпуска: 2018
Страна: Россия
Жанр: Ледовое шоу
Продолжительность: 01:47:00
Перевод: Не требуется
Русские субтитры: нет

Оригинальная аудиодорожка: русский
Телеканал: Первый канал HD
Описание: Ледовое шоу с участием юных фигуристов. Предварительный кастинг проходили маленькие спортсмены из самых разных городов России: Санкт-Петербурга, Москвы, Кирова, Ростова-на-Дону, Твери. В основном это призеры и победители различных спортивных соревнований и первенств, то есть те ребятишки, которые уже давно и серьезно занимаются фигурным катанием. К отборочному этапу были допущены 20 одиночников и 17 танцевальных дуэтов. По итогам их выступлений тренеры наберут себе по команде, состоящей из трех одиночников и трех танцевальных пар. Каждую неделю наставники будут придумывать для своих подопечных яркие номера. Маленькие фигуристы будут стараться покорить строгое жюри во главе с Татьяной Тарасовой. Ну а зрители будут наблюдать, как раскрываются юные фигуристы и как от раза к разу растет уровень их мастерства. Финалистами станут один одиночный фигурист и одна пара.

Тренеры: Татьяна Навка, Максим Траньков, Роман Костомаров и Илья Авербух.
Ведущие: Алексей Ягудин и Евгения Медведева.
Комментируют выступления: Александр Гришин и Владимир Гомельский.

Качество: HDTV
Разрешение видео/развертка: 1080i
Контейнер: TS
Видео кодек: H.264
Аудио кодек: AC3
Видео: H264; 1920x1080 (16:9); 25.000 fps; ~ 10.9 Mb/s
Аудио 1: AC3, 6 channels, 48000Hz, 384 Кбит/сек
Аудио 2: MPEG Audio 48000Hz stereo 192 Кбит/сек
GeneralID : 1 (0x1)Complete name : L:\1_ИСХОЛНИКИ\Ледниковый период. Дети 2018.06.03 Лучшее.tsFormat : MPEG-TSFile size : 9.10 GiBDuration : 1 h 47 minOverall bit rate mode : VariableOverall bit rate : 12.1 Mb/s

VideoID : 205 (0xCD)Menu ID : 20105 (0x4E89)Format : AVCFormat/Info : Advanced Video CodecFormat profile : [email protected] settings : CABAC / 4 Ref FramesFormat settings, CABAC : YesFormat settings, RefFrames : 4 framesCodec ID : 27Duration : 1 h 47 minBit rate : 10.9 Mb/sWidth : 1 920 pixelsHeight : 1 080 pixelsDisplay aspect ratio : 16:9Frame rate : 25.000 FPSStandard : ComponentColor space : YUVChroma subsampling : 4:2:0Bit depth : 8 bitsScan type : InterlacedScan type, store method : Separated fieldsScan order : Top Field FirstBits/(Pixel*Frame) : 0.211Stream size : 8.21 GiB (90%)Color range : LimitedColor primaries : BT.709Transfer characteristics : BT.709Matrix coefficients : BT.709

Audio #1ID : 305 (0x131)Menu ID : 20105 (0x4E89)Format : AC-3Format/Info : Audio Coding 3Format settings, Endianness : BigCodec ID : 6Duration : 1 h 47 minBit rate mode : ConstantBit rate : 384 kb/sChannel(s) : 6 channelsChannel positions : Front: L C R, Side: L R, LFESampling rate : 48.0 kHzFrame rate : 31.250 FPS (1536 SPF)Bit depth : 16 bitsCompression mode : LossyStream size : 296 MiB (3%)Language : RussianService kind : Complete Main

Audio #2ID : 306 (0x132)Menu ID : 20105 (0x4E89)Format : MPEG AudioFormat version : Version 1Format profile : Layer 2Codec ID : 3Duration : 1 h 47 minBit rate mode : ConstantBit rate : 192 kb/sChannel(s) : 2 channelsSampling rate : 48.0 kHzCompression mode : LossyStream size : 148 MiB (2%)Language : Russian


Трекер:  [ 03-Июн-2018 22:42 ]

  

Скачать .torrent

Размер .torrent файла 46 KB


Размер: 9.1 GB
Хэш (hash) релиза: bdd8561840649966405287549a2bd8855194893a
Подписка на обновления:

Еще никто не оставлял запись к записи скачать торрент Ледниковый период. Дети 2018.06.03 Лучшее . Будь первым!

!Обратная связь