Trieste Kelly Dunn | Undefeated Bahamut Chronicle | Cleaners 1

Скачать через торрент Лига удивительных людей 04 выпуск от 2018.06.03 Фильм бесплатно в хорошем качестве torrent

Скачивайте на UnionPeer.org фильмы через торрент без регистрации. Новинки кино в хорошем качестве через торрент. На UnionPeer.org можно скачать через торрент фильмы 2014 и 2015 годов. Самые новые фильмы.

Скачать торрент Лига удивительных людей 04 выпуск от 2018.06.03 бесплатно через .torrent фильм мультфильм сериал

Статистика раздачи
Размер:  6.94 GB   |    Зарегистрирован:  18 дней   |    .torrent скачан:  16 раз   |   
Раздают:  1  
   
загрузка...
 
Автор Сообщение

Galfimbul

avatar Galfimbul


Лига удивительных людей 04 выпуск от 2018.06.03

Дата/Год выпуска: 2018
Страна: Россия
Жанр: Шоу
Продолжительность: 01:24:00
Перевод: Не требуется
Описание: В новом шоу самые экстраординарные люди планеты, победители мировых конкурсов, рекордсмены и чемпионы бросают вызов своим феноменальным "коллегам" из России! В грандиозном международном соревновании примут участие лучшие из лучших со всего мира - известные артисты, спортсмены и просто обычные люди с необычными способностями. Исход борьбы непредсказуем: в студии проекта их ждут сильнейшие соперники и таланты, которыми так богата наша страна! Они продемонстрируют силу и ловкость, уникальное мастерство и владение невероятными техниками. В каждом выпуске программы зрителям и жюри предстоит увидеть четыре баттла - зрелищных поединка в различных жанрах и направлениях. Бороться за победу конкурсанты будут как в одиночку, так и целыми командами, дуэтами и даже семьями. По итогам каждого баттла члены жюри, в составе которого российские и зарубежные суперзвезды, выберут из двух "дуэлянтов" только одного участника - того, чей талант впечатлит их сильнее! При этом в арсенале судей - только обсуждение и ограниченное количество времени для принятия единого решения. Победителя каждого выпуска путем голосования определяют зрители в зале. В финальном шоу лучшие из лучших сразятся за звание рекордсмена сезона "Лиги удивительных людей". Победителем шоу, оставившим далеко позади признанного чемпиона, может стать любой участник! Их умения уникальны! Им подвластны все стихии! Они готовы вас удивлять!
Жюри конкурса:
Николай Валуев, российский боксер-профессионал, общественный и политический деятель, самый высокий и тяжелый спортсмен в истории бокса. Первый россиянин, которому удалось завоевать титул чемпиона мира в тяжелом весе.
Джеффри Монсон, американский и российский спортсмен. Многократный победитель международных боев в стиле смешанных единоборств. Чемпион мира по бразильскому джиу-джитсу.
Николай Басков, российский певец, телеведущий, народный артист России.
Памела Андерсон, американская актриса, модель и общественный деятель.
Мария Аронова, российская актриса театра и кино, народная артистка РФ, лауреат многочисленных премий в области культуры.

качество: HDTV 1080i
формат: TS
Видео кодек: H.264
Аудио кодек: MP2
Видео: H264; 1920x1080 (16:9); 25.000 fps; ~11.0 Mb/s
Аудио: MPEG Audio 48000Hz stereo 192 Кбит/сек
GeneralID : 1 (0x1)Complete name : F:\Behold TV 222\Лига удивительных людей 04 выпуск от 2018.06.03.tsFormat : MPEG-TSFile size : 6.94 GiBDuration : 1 h 24 minOverall bit rate mode : VariableOverall bit rate : 11.8 Mb/s

VideoID : 2292 (0x8F4)Menu ID : 2291 (0x8F3)Format : AVCFormat/Info : Advanced Video CodecFormat profile : [email protected] settings : CABAC / 4 Ref FramesFormat settings, CABAC : YesFormat settings, RefFrames : 4 framesCodec ID : 27Duration : 1 h 24 minBit rate : 11.0 Mb/sWidth : 1 920 pixelsHeight : 1 080 pixelsDisplay aspect ratio : 16:9Frame rate : 25.000 FPSStandard : ComponentColor space : YUVChroma subsampling : 4:2:0Bit depth : 8 bitsScan type : InterlacedScan type, store method : Separated fieldsScan order : Top Field FirstBits/(Pixel*Frame) : 0.212Stream size : 6.48 GiB (93%)Color range : LimitedColor primaries : BT.709Transfer characteristics : BT.709Matrix coefficients : BT.709

AudioID : 2295 (0x8F7)Menu ID : 2291 (0x8F3)Format : MPEG AudioFormat version : Version 1Format profile : Layer 2Codec ID : 3Duration : 1 h 24 minBit rate mode : ConstantBit rate : 192 kb/sChannel(s) : 2 channelsSampling rate : 48.0 kHzCompression mode : LossyStream size : 116 MiB (2%)Language : Russian


Трекер:  [ 03-Июн-2018 21:12 ]

  

Скачать .torrent

Размер .torrent файла 35 KB


Размер: 6.94 GB
Хэш (hash) релиза: 78fa3c862bf7e6764c306cd5be56d2889fdc9bf9
Подписка на обновления:

Еще никто не оставлял запись к записи скачать торрент Лига удивительных людей 04 выпуск от 2018.06.03 . Будь первым!

!Обратная связь