Justine Clarke | Read More.. | Movies Torrents

Скачать через торрент Северное сияние Серии: 1-2 из 2 Фильм бесплатно в хорошем качестве torrent

Скачивайте на UnionPeer.org фильмы через торрент без регистрации. Новинки кино в хорошем качестве через торрент. На UnionPeer.org можно скачать через торрент фильмы 2014 и 2015 годов. Самые новые фильмы.

Скачать торрент Северное сияние Серии: 1-2 из 2 бесплатно через .torrent фильм мультфильм сериал

Статистика раздачи
Размер:  1.46 GB   |    Зарегистрирован:  20 дней   |    .torrent скачан:  54 раза   |   
Раздают:  1  
   
загрузка...
 
Автор Сообщение

Galfimbul

avatar Galfimbul



Северное сияние


Год выпуска: 2018
Производство: Марс Медиа Энтертейнмен
Жанр: детектив, мистика
Продолжительность: ~00:45:00
Субтитры: Нет
Реклама: Отсутствует
Режиссёр: Дарья Семенова
В ролях: Ирина Горячева, Анна Дулова, Игорь Головин, Константин Шелестун, Наталия Варфоломеева, Пётр Харченко, Галина Бокашевская, Никита Плащевский, Александра Большакова, Владимир Котов, Хельга Филиппова
Описание: Автор детективов Агата Север, переживающая творческий кризис, отправляется вместе со своей помощницей Марусей на маленький остров в Ладожском озере. Едва ступив на берег, женщины оказываются свидетелями ЧП и становятся спасителями молодой девушки, чудом оставшейся живой после падения с обрыва. Однако Агата не верит в несчастный случай и довольно быстро узнаёт, кто же является злоумышленником. Очень скоро подозреваемого убивают. Теперь женщинам предстоит найти убийцу, которому из-за начавшегося шторма не удаётся покинуть остров. Анализируя происходящие события, Агата вдруг узнаёт места из своих детских снов. Женщина неожиданно понимает, что мучавшие её кошмары – не сны, а воспоминания о событиях на этом острове, свидетелем которых она стала много лет назад…


Предыдущие и альтернативные раздачи
Качество: WEB-DLRip-AVC / WEB-DL 1080p
Формат: MKV
Видео: MPEG-4 AVC, 1024x576 (16:9), 25.000 fps, ~2152 kbps avg, 0.146 bit/pixel
Аудио: 48 kHz, AC3 Dolby Digital, 2/0 (L,R) ch, ~192 kbps avg
Complete name               : D:\Раздача\Северное сияние (2018)\01 - Северное сияние (2018).mkv
Format                      : Matroska
Format version              : Version 2
File size                   : 747 MiB
Duration                    : 44 min 32 s
Overall bit rate            : 2 345 kb/s
Movie name                  : 01 - Северное сияние (2018)
Encoded date                : UTC 2018-06-03 15:46:18
Writing application         : mkvmerge v4.4.0 ('Die Wiederkehr') сборка от Jan  3 2011 21:40:45
Writing library             : libebml v1.0.0 + libmatroska v1.0.0
Cover                       : Yes
Attachments                 : cover.jpg

Video
ID                          : 1
Format                      : AVC
Format/Info                 : Advanced Video Codec
Format profile              : [email protected]
Format settings, CABAC      : Yes
Format settings, RefFrames  : 14 frames
Codec ID                    : V_MPEG4/ISO/AVC
Duration                    : 44 min 32 s
Bit rate                    : 2 152 kb/s
Width                       : 1 024 pixels
Height                      : 576 pixels
Display aspect ratio        : 16:9
Frame rate mode             : Constant
Frame rate                  : 25.000 FPS
Color space                 : YUV
Chroma subsampling          : 4:2:0
Bit depth                   : 8 bits
Scan type                   : Progressive
Bits/(Pixel*Frame)          : 0.146
Stream size                 : 671 MiB (90%)
Title                       : Rip by ivanes20031987
Writing library             : x264 core 155 r2901 7d0ff22
Encoding settings           : cabac=1 / ref=14 / deblock=1:-3:-3 / analyse=0x3:0x113 / me=umh / subme=10 / psy=1 / psy_rd=1.00:0.00 / mixed_ref=1 / me_range=32 / chroma_me=1 / trellis=2 / 8x8dct=1 / cqm=0 / deadzone=21,11 / fast_pskip=0 / chroma_qp_offset=-2 / threads=12 / lookahead_threads=3 / sliced_threads=0 / nr=0 / decimate=0 / interlaced=0 / bluray_compat=0 / constrained_intra=0 / bframes=14 / b_pyramid=2 / b_adapt=2 / b_bias=0 / direct=1 / weightb=1 / open_gop=0 / weightp=2 / keyint=250 / keyint_min=25 / scenecut=40 / intra_refresh=0 / rc_lookahead=60 / rc=2pass / mbtree=0 / bitrate=2152 / ratetol=1.0 / qcomp=0.60 / qpmin=0 / qpmax=69 / qpstep=4 / cplxblur=20.0 / qblur=0.5 / vbv_maxrate=50000 / vbv_bufsize=62500 / nal_hrd=none / filler=0 / ip_ratio=1.40 / pb_ratio=1.30 / aq=1:1.00
Default                     : Yes
Forced                      : No

Audio
ID                          : 2
Format                      : AC-3
Format/Info                 : Audio Coding 3
Format settings, Endianness : Big
Codec ID                    : A_AC3
Duration                    : 44 min 32 s
Bit rate mode               : Constant
Bit rate                    : 192 kb/s
Channel(s)                  : 2 channels
Channel positions           : Front: L R
Sampling rate               : 48.0 kHz
Frame rate                  : 31.250 FPS (1536 SPF)
Bit depth                   : 16 bits
Compression mode            : Lossy
Stream size                 : 61.2 MiB (8%)
Language                    : Russian
Service kind                : Complete Main
Default                     : Yes
Forced                      : No


Трекер:  [ 03-Июн-2018 20:42 ]

  

Скачать .torrent

Размер .torrent файла 15 KB


Размер: 1.46 GB
Хэш (hash) релиза: 60cf60a3ba864b6d75923e2861b9bd8bfc209795
Подписка на обновления:

Торренты, похожие на Северное сияние Серии: 1-2 из 2 скачать торрент

Форум Название Автор Размер S L Добавлен
Российские сериалы ·· Северное сияние / Серии: 1-2 из 2 (Дарья Семенова) [2018, детектив, мистика, WEBRip] Galfimbul 11899985921.11 GB 0 0 1527961344

20:42

2-Июн-18

Российские сериалы ·· Северное сияние / Серии: 1-2 из 2 (Дарья Семенова) [2018, детектив, мистика, WEBRip 1080p] Galfimbul 36060095133.36 GB 0 0 1527959550

20:12

2-Июн-18

Российские сериалы ·· Северное сияние / Серии: 1-2 из 2 ( Дарья Семенова) [2018,детектив, мистика, SATRip-AVC] aleksan55 12008261881.12 GB 0 0 1527864842

17:54

1-Июн-18

Еще никто не оставлял запись к записи скачать торрент Северное сияние Серии: 1-2 из 2 . Будь первым!

!Обратная связь