épisode 1 streaming What Lies Ahead | 旅かえる APK | Tales from the Perilous Realm - J.R.R. Tolkien

Скачать через торрент Надломленные души Серии: 1-4 из 4 Фильм бесплатно в хорошем качестве torrent

Скачивайте на UnionPeer.org фильмы через торрент без регистрации. Новинки кино в хорошем качестве через торрент. На UnionPeer.org можно скачать через торрент фильмы 2014 и 2015 годов. Самые новые фильмы.

Скачать торрент Надломленные души Серии: 1-4 из 4 бесплатно через .torrent фильм мультфильм сериал

Статистика раздачи
Размер:  5.21 GB   |    Зарегистрирован:  21 день   |    .torrent скачан:  30 раз   |   
Раздают:  1  
   
загрузка...
 
Автор Сообщение

Galfimbul

avatar Galfimbul


Надломленные души

Год выпуска: 2018
Производство: Студия "Жар-Птица"
Жанр: мелодрама
Продолжительность: ~00:45:00 серия
Субтитры: нет

Режиссёр: Сергей Борчуков

В ролях: Екатерина Семёнова, Владимир Гориславец, Андрей Егоров, Анастасия Куимова, Татьяна Полосина, Алёна Михайлова, Алексей Колган, Мария Леонова, Алексей Матошин, Владислав Погиба, Анастасия Теплинская

Описание: Лидия Константиновна — главный балетмейстер театра, жесткая и бескомпромиссная женщина. Для нее в жизни существуют только две вещи — балет и ее дочка Рита.
Рита влюбляется в Максима Морозова, нового танцовщика в труппе Лидии. Как опытный балетмейстер, Лидия много повидала таких заносчивых и бессовестных нарциссов, готовых на все ради славы. Она точно знает, что Максим использует Риту, чтобы получить главную роль и считает своим долгом защитить дочь от разочарования и унижения. Но все происходит не так, как рассчитывала Лидия…

Реклама: Нет.

Кинопоиск

Sample

Качество: HDTVRip 720p - Nikolspup
Формат: MKV
Видео кодек: H.264
Аудио кодек: AC3
Видео: MPEG4 AVC Video, H264, 16:9, 1280x720, 25 fps, ~4000 kbps, 0.174 bit/pixel
Аудио: AC3 Dolby Digital, 48 kHz, 2/0 (L,R) ch, 192 kbp
General
Unique ID : 238526704942885124059063123187240406712 (0xB3729286170F02D083A20EAAFF1A0EB8)
Complete name : D:\Nadlomlennye.dushi.2018.HDTVRip.(720p).Nikolspup\Nadlomlennye.dushi.(01.seriya.iz.02).2018.HDTVRip.(720p).Nikolspup.mkv
Format : Matroska
Format version : Version 4 / Version 2
File size : 2.62 GiB
Duration : 1 h 29 min
Overall bit rate : 4 193 kb/s
Encoded date : UTC 2018-06-03 08:29:06
Writing application : mkvmerge v7.8.0 ('River Man') 32bit built on Mar 27 2015 16:18:02
Writing library : libebml v1.3.1 + libmatroska v1.4.2

Video
ID : 1
Format : AVC
Format/Info : Advanced Video Codec
Format profile : [email protected]
Format settings : CABAC / 9 Ref Frames
Format settings, CABAC : Yes
Format settings, ReFrames : 9 frames
Codec ID : V_MPEG4/ISO/AVC
Duration : 1 h 29 min
Bit rate : 4 000 kb/s
Width : 1 280 pixels
Height : 720 pixels
Display aspect ratio : 16:9
Frame rate mode : Constant
Frame rate : 25.000 FPS
Color space : YUV
Chroma subsampling : 4:2:0
Bit depth : 8 bits
Scan type : Progressive
Bits/(Pixel*Frame) : 0.174
Stream size : 2.50 GiB (95%)
Writing library : x264 core 146 r2538 121396c
Encoding settings : cabac=1 / ref=9 / deblock=1:-2:-1 / analyse=0x3:0x133 / me=umh / subme=9 / psy=1 / psy_rd=1.00:0.20 / mixed_ref=1 / me_range=32 / chroma_me=1 / trellis=2 / 8x8dct=1 / cqm=0 / deadzone=21,11 / fast_pskip=1 / chroma_qp_offset=-3 / threads=16 / lookahead_threads=8 / sliced_threads=0 / nr=0 / decimate=1 / interlaced=0 / bluray_compat=0 / constrained_intra=0 / bframes=11 / b_pyramid=2 / b_adapt=2 / b_bias=0 / direct=1 / weightb=1 / open_gop=0 / weightp=2 / keyint=250 / keyint_min=25 / scenecut=40 / intra_refresh=0 / rc=2pass / mbtree=0 / bitrate=4000 / ratetol=1.0 / qcomp=0.60 / qpmin=0 / qpmax=69 / qpstep=4 / cplxblur=20.0 / qblur=0.5 / ip_ratio=1.40 / pb_ratio=1.30 / aq=3:1.00
Default : No
Forced : No
Color range : Limited
Color primaries : BT.709
Transfer characteristics : BT.709
Matrix coefficients : BT.709

Audio
ID : 2
Format : AC-3
Format/Info : Audio Coding 3
Codec ID : A_AC3
Duration : 1 h 29 min
Bit rate mode : Constant
Bit rate : 192 kb/s
Channel(s) : 2 channels
Channel positions : Front: L R
Sampling rate : 48.0 kHz
Frame rate : 31.250 FPS (1536 SPF)
Bit depth : 16 bits
Compression mode : Lossy
Stream size : 123 MiB (5%)
Language : Russian
Service kind : Complete Main
Default : Yes
Forced : Yes


Трекер:  [ 03-Июн-2018 15:12 ]

  

Скачать .torrent

Размер .torrent файла 26 KB


Размер: 5.21 GB
Хэш (hash) релиза: a33c945fad91e50b7b2564ff459a14a90442e5a3
Подписка на обновления:

Торренты, похожие на Надломленные души Серии: 1-4 из 4 скачать торрент

Форум Название Автор Размер S L Добавлен
Российские сериалы ·· Надломленные души / Серии: 1-4 из 4 (Сергей Борчуков) [2018, мелодрама, WEBRip] Galfimbul 29409730562.74 GB 0 0 1528009955

10:12

3-Июн-18

Еще никто не оставлял запись к записи скачать торрент Надломленные души Серии: 1-4 из 4 . Будь первым!

!Обратная связь