Li-Wu Tai | Ben 10 2016 S02E17 Super-Villain Team-Up 720p WEB-DL AAC2 0 H 264-YFN | Abenteuer

Скачать через торрент [VIDEO] Пираты Карибского моря: Мертвецы не рассказывают сказки Pirates of the Caribbean: Dead Men Tell No Tales бесплатно русская версия torrent активатор

Статистика раздачи
Размер:  2.16 GB   |    Зарегистрирован:  21 день   |    .torrent скачан:  25 раз   |   
Раздают:  1  
   
загрузка...
 
Автор Сообщение

Galfimbul

avatar Galfimbul


Пираты Карибского моря: Мертвецы не рассказывают сказки / Pirates of the Caribbean: Dead Men Tell No Tales


Год выпуска: 2017
Страна: США, Великобритания, Венгрия, Канада
Жанр: фантастика, приключения, триллер, драма
Продолжительность: 02:09:07
Перевод №1: русский Профессиональный (полное дублирование) Blu-Ray EUR
Перевод №2: украинский Профессиональный (полное дублирование)
Перевод №3: русский Авторский (одноголосый, закадровый) Ю.Живов
Перевод №4: русский Одноголосый (закадровый) Solod
Оригинальная дорожка: Есть
Субтитры: русские (форсированные, полные), английские (полные)
Режиссеры: Хоаким Роннинг / Joachim Rønning, Эспен Сандберг / Espen Sandberg
В ролях: Джонни Депп, Кира Найтли, Кая Скоделарио, Дэвид Уэнэм, Орландо Блум, Джеффри Раш, Брентон Туэйтс, Хавьер Бардем, Голшифте Фарахани, Стивен Грэм и другие .
Описание: Исчерпавший свою удачу капитан Джек Воробей обнаруживает, что за ним охотится его старый неприятель, ужасный капитан Салазар и его призрачные пираты. Они только что сбежали из Дьявольского треугольника и намерены уничтожить всех пиратов, включая Джека. Поможет спастись лишь могущественный артефакт — трезубец Посейдона, который дарует своему обладателю полный контроль над морями .
Релиз группы

Качество: BDRip / рип с Blu-ray disc 1080p [EUR]
Формат: MP4
Видео кодек: H.264
Аудио кодек: AAC
Видео: 960x400 AR:2.40 1740 kbps 23.976 fps
Аудио №1: [Russian] 2ch 48 kHz 128 kbps - [Dub] Профессиональный (полное дублирование) Blu-Ray EUR
Аудио №2: [Ukrainian] 2ch 48 kHz 128 kbps - [Dub] Профессиональный (полное дублирование)
Аудио №3: [Russian] 2ch 48 kHz 128 kbps - [VO] Авторский (одноголосый, закадровый) Ю.Живов
Аудио №4: [Russian] 2ch 48 kHz 128 kbps - [VO] Одноголосый (закадровый) Solod
Аудио №5: [English] 2ch 48 kHz 128 kbps - Original
avs [info]: 960x400p 1:1 @ 24000/1001 fps (cfr)
x264 [info]: using SAR=1/1
x264 [info]: using cpu capabilities: MMX2 SSE2Fast SSSE3 SSE4.2 AVX FMA3 BMI2 AVX2
x264 [info]: profile High, level 4.1

x264 [info]: frame I:1715 Avg QP:18.34 size: 53914
x264 [info]: frame P:47432 Avg QP:22.02 size: 16964
x264 [info]: frame B:136601 Avg QP:24.24 size: 5768
x264 [info]: consecutive B-frames: 3.4% 4.7% 12.6% 33.9% 18.5% 21.8% 3.0% 1.2% 0.8%
x264 [info]: mb I I16..4: 3.3% 71.4% 25.3%
x264 [info]: mb P I16..4: 0.6% 9.8% 2.1% P16..4: 34.4% 39.3% 11.6% 0.0% 0.0% skip: 2.1%
x264 [info]: mb B I16..4: 0.1% 1.3% 0.3% B16..8: 39.5% 20.3% 3.2% direct: 4.5% skip:30.9% L0:42.5% L1:45.5% BI:12.0%
x264 [info]: 8x8 transform intra:77.4% inter:60.1%
x264 [info]: direct mvs spatial:95.6% temporal:4.4%
x264 [info]: coded y,uvDC,uvAC intra: 90.1% 79.5% 47.5% inter: 23.2% 15.1% 4.7%
x264 [info]: i16 v,h,dc,p: 11% 15% 5% 69%
x264 [info]: i8 v,h,dc,ddl,ddr,vr,hd,vl,hu: 6% 6% 3% 11% 16% 15% 16% 12% 14%
x264 [info]: i4 v,h,dc,ddl,ddr,vr,hd,vl,hu: 8% 6% 3% 10% 16% 15% 15% 12% 15%
x264 [info]: i8c dc,h,v,p: 37% 25% 18% 19%
x264 [info]: Weighted P-Frames: Y:17.1% UV:10.9%
x264 [info]: ref P L0: 51.0% 11.9% 15.4% 6.4% 4.8% 4.1% 3.5% 2.3% 0.5% 0.0%
x264 [info]: ref B L0: 80.8% 8.9% 4.4% 2.3% 1.7% 1.4% 0.5%
x264 [info]: ref B L1: 95.9% 4.1%
x264 [info]: kb/s:1739.95

encoded 185748 frames, 16.59 fps, 1739.95 kb/s
ОбщееПолное имя : D:\Torrents\Pirates of the Caribbean Dead Men Tell No Tales.2017.BDRip.x264.960x.rip by Frost O.S.mp4Формат : MPEG-4Профиль формата : Base MediaИдентификатор кодека : isom (isom)Размер файла : 2,16 ГбайтПродолжительность : 2 ч. 9 м.Режим общего битрейта : ПеременныйОбщий поток : 2391 Кбит/секДата кодирования : UTC 2018-06-03 11:00:17Дата пометки : UTC 2018-06-03 11:00:17Программа кодирования : My MP4Box GUI 0.6.0.6

ВидеоИдентификатор : 1Формат : AVCФормат/Информация : Advanced Video CodecПрофиль формата : [email protected]Настройки формата : CABAC / 8 Ref FramesПараметр CABAC формата : ДаПараметр RefFrames формата : 8 кадровИдентификатор кодека : avc1Идентификатор кодека/Информация : Advanced Video CodingПродолжительность : 2 ч. 9 м.Битрейт : 1740 Кбит/секМаксимальный битрейт : 7797 Кбит/секШирина : 960 пикселейВысота : 400 пикселейСоотношение сторон : 2,40:1Режим частоты кадров : ПостоянныйЧастота кадров : 23,976 (24000/1001) кадра/секЦветовое пространство : YUVСубдискретизация насыщенности : 4:2:0Битовая глубина : 8 битТип развёртки : ПрогрессивнаяБит/(Пиксели*Кадры) : 0.189Размер потока : 1,57 Гбайт (73%)Заголовок : Pirates of the Caribbean Dead Men Tell No Tales.2017.BDRip.x264.960x.rip by Frost O.SБиблиотека кодирования : x264 core 152 r2851 ba24899Настройки программы : cabac=1 / ref=8 / deblock=1:-2:-1 / analyse=0x3:0x113 / me=umh / subme=11 / psy=1 / psy_rd=1.00:0.00 / mixed_ref=1 / me_range=32 / chroma_me=1 / trellis=2 / 8x8dct=1 / cqm=0 / deadzone=21,11 / fast_pskip=0 / chroma_qp_offset=-2 / threads=6 / lookahead_threads=1 / sliced_threads=0 / nr=0 / decimate=0 / interlaced=0 / bluray_compat=0 / constrained_intra=0 / bframes=8 / b_pyramid=2 / b_adapt=2 / b_bias=0 / direct=3 / weightb=1 / open_gop=0 / weightp=2 / keyint=250 / keyint_min=23 / scenecut=40 / intra_refresh=0 / rc=2pass / mbtree=0 / bitrate=1740 / ratetol=1.0 / qcomp=0.70 / qpmin=0 / qpmax=69 / qpstep=4 / cplxblur=20.0 / qblur=0.5 / ip_ratio=1.40 / pb_ratio=1.30 / aq=3:0.90Дата кодирования : UTC 2018-06-03 09:47:26Дата пометки : UTC 2018-06-03 11:01:05Цветовой диапазон : LimitedОсновные цвета : BT.709Характеристики трансфера : BT.709Коэффициенты матрицы : BT.709

Аудио #1Идентификатор : 2Формат : AACФормат/Информация : Advanced Audio CodecПрофиль формата : LCИдентификатор кодека : mp4a-40-2Продолжительность : 2 ч. 9 м.Вид битрейта : ПеременныйБитрейт : 128 Кбит/секМаксимальный битрейт : 134 Кбит/секКаналы : 2 каналаРасположение каналов : Front: L RЧастота : 48,0 КГцЧастота кадров : 46,875 кадров/сек (1024 SPF)Метод сжатия : С потерямиРазмер потока : 118 Мбайт (5%)Заголовок : Russian / Dub, Blu-Ray EURДата кодирования : UTC 2018-06-03 11:00:28Дата пометки : UTC 2018-06-03 11:01:05

Аудио #2Идентификатор : 3Формат : AACФормат/Информация : Advanced Audio CodecПрофиль формата : LCИдентификатор кодека : mp4a-40-2Продолжительность : 2 ч. 9 м.Вид битрейта : ПеременныйБитрейт : 128 Кбит/секМаксимальный битрейт : 138 Кбит/секКаналы : 2 каналаРасположение каналов : Front: L RЧастота : 48,0 КГцЧастота кадров : 46,875 кадров/сек (1024 SPF)Метод сжатия : С потерямиРазмер потока : 118 Мбайт (5%)Заголовок : Ukrainian / DubДата кодирования : UTC 2018-06-03 11:00:41Дата пометки : UTC 2018-06-03 11:01:05

Аудио #3Идентификатор : 4Формат : AACФормат/Информация : Advanced Audio CodecПрофиль формата : LCИдентификатор кодека : mp4a-40-2Продолжительность : 2 ч. 9 м.Вид битрейта : ПеременныйБитрейт : 128 Кбит/секМаксимальный битрейт : 138 Кбит/секКаналы : 2 каналаРасположение каналов : Front: L RЧастота : 48,0 КГцЧастота кадров : 46,875 кадров/сек (1024 SPF)Метод сжатия : С потерямиРазмер потока : 118 Мбайт (5%)Заголовок : Russian / VO, ZhuvovДата кодирования : UTC 2018-06-03 11:00:47Дата пометки : UTC 2018-06-03 11:01:05

Аудио #4Идентификатор : 5Формат : AACФормат/Информация : Advanced Audio CodecПрофиль формата : LCИдентификатор кодека : mp4a-40-2Продолжительность : 2 ч. 9 м.Вид битрейта : ПеременныйБитрейт : 128 Кбит/секМаксимальный битрейт : 137 Кбит/секКаналы : 2 каналаРасположение каналов : Front: L RЧастота : 48,0 КГцЧастота кадров : 46,875 кадров/сек (1024 SPF)Метод сжатия : С потерямиРазмер потока : 118 Мбайт (5%)Заголовок : Russian / VO, SolodДата кодирования : UTC 2018-06-03 11:00:51Дата пометки : UTC 2018-06-03 11:01:05

Аудио #5Идентификатор : 6Формат : AACФормат/Информация : Advanced Audio CodecПрофиль формата : LCИдентификатор кодека : mp4a-40-2Продолжительность : 2 ч. 9 м.Вид битрейта : ПеременныйБитрейт : 128 Кбит/секМаксимальный битрейт : 135 Кбит/секКаналы : 2 каналаРасположение каналов : Front: L RЧастота : 48,0 КГцЧастота кадров : 46,875 кадров/сек (1024 SPF)Метод сжатия : С потерямиРазмер потока : 118 Мбайт (5%)Заголовок : English / OriginalДата кодирования : UTC 2018-06-03 11:00:57Дата пометки : UTC 2018-06-03 11:01:05

Текст #1Идентификатор : 7Формат : Timed TextИдентификатор кодека : tx3gПродолжительность : 1 ч. 18 м.Вид битрейта : ПеременныйБитрейт : 1 бит/секРазмер потока : 442 байт (0%)Заголовок : Russian / ForcedForced : НетДата кодирования : UTC 2018-06-03 11:01:05Дата пометки : UTC 2018-06-03 11:01:05

Текст #2Идентификатор : 8Формат : Timed TextИдентификатор кодека : tx3gПродолжительность : 2 ч. 0 м.Вид битрейта : ПеременныйБитрейт : 77 бит/секРазмер потока : 67,7 Кбайт (0%)Заголовок : Russian / FullForced : НетДата кодирования : UTC 2018-06-03 11:01:05Дата пометки : UTC 2018-06-03 11:01:05

Текст #3Идентификатор : 9Формат : Timed TextИдентификатор кодека : tx3gПродолжительность : 1 ч. 58 м.Вид битрейта : ПеременныйБитрейт : 51 бит/секРазмер потока : 44,0 Кбайт (0%)Заголовок : English / FullForced : НетДата кодирования : UTC 2018-06-03 11:01:05Дата пометки : UTC 2018-06-03 11:01:05


Трекер:  [ 03-Июн-2018 14:36 ]

  

Скачать .torrent

Размер .torrent файла 11 KB


Размер: 2.16 GB
Хэш (hash) релиза: 94636275d0be728a9138a9ef6d8260b50deccfb1

Торренты, похожие на [VIDEO] Пираты Карибского моря: Мертвецы не рассказывают сказки Pirates of the Caribbean: Dead Men Tell No Tales скачать торрент

Форум Название Автор Размер S L Добавлен
Видео (Фильмы/Клипы) ·· [VIDEO] Пираты Карибского моря: Мертвецы не рассказывают сказки / Pirates of the Caribbean: Dead Men Tell No Tales (Хоаким Роннинг / Joachim Rønning, Эспен Сандберг / Espen Sandberg) [2017, приключения, BDRip] [3GP, 320x] Galfimbul 465476009444 MB 0 0 1528025804

14:36

3-Июн-18

Видео (Фильмы/Клипы) ·· [VIDEO] Пираты Карибского моря: Мертвецы не рассказывают сказки / Pirates of the Caribbean: Dead Men Tell No Tales (Хоаким Роннинг / Joachim Rønning, Эспен Сандберг / Espen Sandberg) [2017, приключения, BDRip] [MP4, 480x] Galfimbul 550371893525 MB 0 0 1528025785

14:36

3-Июн-18

Видео (Фильмы/Клипы) ·· [VIDEO] Пираты Карибского моря: Мертвецы не рассказывают сказки / Pirates of the Caribbean: Dead Men Tell No Tales (Хоаким Роннинг / Joachim Rønning) [2017, фантастика, приключения, триллер, драма, BDRip] [MP4, 1280x] Galfimbul 35358554283.29 GB 0 0 1528023983

14:06

3-Июн-18

Видео (Фильмы/Клипы) ·· [VIDEO] Пираты Карибского моря: Мертвецы не рассказывают сказки / Pirates of the Caribbean: Dead Men Tell No Tales (Хоаким Роннинг, Эспен Сандберг / Joachim Rønning, Espen Sandberg) [2017, фэнтези, комедия, приключения, HDRip] [MP4, 1280x] Galfimbul 17553656351.63 GB 0 0 1508294553

05:42

18-Окт-17

Еще никто не оставлял запись к записи скачать торрент [VIDEO] Пираты Карибского моря: Мертвецы не рассказывают сказки Pirates of the Caribbean: Dead Men Tell No Tales . Будь первым!

!Обратная связь