Science Fiction | Thriller | TV Movie

Скачать через торрент [VIDEO] Пираты Карибского моря: Мертвецы не рассказывают сказки Pirates of the Caribbean: Dead Men Tell No Tales бесплатно русская версия torrent активатор

Статистика раздачи
Размер:  525 MB   |    Зарегистрирован:  21 день   |    .torrent скачан:  19 раз   |   
Раздают:  1  
   
загрузка...
 
Автор Сообщение

Galfimbul

avatar Galfimbul


Пираты Карибского моря: Мертвецы не рассказывают сказки / Pirates of the Caribbean: Dead Men Tell No Tales


Год выпуска: 2017
Страна: США, Великобритания, Венгрия, Канада
Жанр: фантастика, приключения, триллер, драма
Продолжительность: 02:09:07
Перевод: русский Профессиональный (полное дублирование) Blu-Ray EUR
Субтитры: нет
Режиссеры: Хоаким Роннинг / Joachim Rønning, Эспен Сандберг / Espen Sandberg
В ролях: Джонни Депп, Кира Найтли, Кая Скоделарио, Дэвид Уэнэм, Орландо Блум, Джеффри Раш, Брентон Туэйтс, Хавьер Бардем, Голшифте Фарахани, Стивен Грэм и другие .
Описание: Исчерпавший свою удачу капитан Джек Воробей обнаруживает, что за ним охотится его старый неприятель, ужасный капитан Салазар и его призрачные пираты. Они только что сбежали из Дьявольского треугольника и намерены уничтожить всех пиратов, включая Джека. Поможет спастись лишь могущественный артефакт — трезубец Посейдона, который дарует своему обладателю полный контроль над морями .
Релиз группы

Качество: BDRip / рип с Blu-ray disc 1080p [EUR]
Формат: MP4
Видео кодек: XviD
Аудио кодек: AAC
Видео: 480x200 AR:2.40 437 kbps 23.976 fps
Аудио: [Russian] 2ch 48 kHz 128 kbps - [Dub] Профессиональный (полное дублирование) Blu-Ray EUR
ОбщееПолное имя : D:\Torrents\Pirates of the Caribbean Dead Men Tell No Tales.2017.BDRip.XviD.480x.rip by Frost O.S.mp4Формат : MPEG-4Профиль формата : Base MediaИдентификатор кодека : isom (isom)Размер файла : 525 МбайтПродолжительность : 2 ч. 9 м.Режим общего битрейта : ПеременныйОбщий поток : 568 Кбит/секДата кодирования : UTC 2018-06-03 11:14:28Дата пометки : UTC 2018-06-03 11:14:28Программа кодирования : My MP4Box GUI 0.6.0.6

ВидеоИдентификатор : 1Формат : MPEG-4 VisualПрофиль формата : Advanced [email protected]Настройки формата : BVOP / Custom MatrixПараметр BVOP формата : ДаПараметр QPel формата : НетПараметр GMC формата : Без точки переходаПараметр матрицы формата : ВыборочнаяИдентификатор кодека : mp4v-20Продолжительность : 2 ч. 9 м.Вид битрейта : ПеременныйБитрейт : 437 Кбит/секМаксимальный битрейт : 3247 Кбит/секШирина : 480 пикселейВысота : 200 пикселейСоотношение сторон : 2,40:1Режим частоты кадров : ПостоянныйЧастота кадров : 23,976 (24000/1001) кадра/секЦветовое пространство : YUVСубдискретизация насыщенности : 4:2:0Битовая глубина : 8 битТип развёртки : ПрогрессивнаяМетод сжатия : С потерямиБит/(Пиксели*Кадры) : 0.190Размер потока : 403 Мбайт (77%)Заголовок : Pirates of the Caribbean Dead Men Tell No Tales.2017.BDRip.XviD.480x.rip by Frost O.SБиблиотека кодирования : XviD 1.2.1 (UTC 2008-12-04)Дата кодирования : UTC 2018-06-03 11:14:28Дата пометки : UTC 2018-06-03 11:14:38

АудиоИдентификатор : 2Формат : AACФормат/Информация : Advanced Audio CodecПрофиль формата : LCИдентификатор кодека : mp4a-40-2Продолжительность : 2 ч. 9 м.Вид битрейта : ПеременныйБитрейт : 128 Кбит/секМаксимальный битрейт : 134 Кбит/секКаналы : 2 каналаРасположение каналов : Front: L RЧастота : 48,0 КГцЧастота кадров : 46,875 кадров/сек (1024 SPF)Метод сжатия : С потерямиРазмер потока : 118 Мбайт (23%)Заголовок : Russian / Dub, Blu-Ray EURДата кодирования : UTC 2018-06-03 11:14:32Дата пометки : UTC 2018-06-03 11:14:38


Трекер:  [ 03-Июн-2018 14:36 ]

  

Скачать .torrent

Размер .torrent файла 10 KB


Размер: 525 MB
Хэш (hash) релиза: fb1f0872dea933bd59049c8b3f48832e3372b157

Торренты, похожие на [VIDEO] Пираты Карибского моря: Мертвецы не рассказывают сказки Pirates of the Caribbean: Dead Men Tell No Tales скачать торрент

Форум Название Автор Размер S L Добавлен
Видео (Фильмы/Клипы) ·· [VIDEO] Пираты Карибского моря: Мертвецы не рассказывают сказки / Pirates of the Caribbean: Dead Men Tell No Tales (Хоаким Роннинг / Joachim Rønning, Эспен Сандберг / Espen Sandberg) [2017, приключения, BDRip] [3GP, 320x] Galfimbul 465476009444 MB 0 0 1528025804

14:36

3-Июн-18

Видео (Фильмы/Клипы) ·· [VIDEO] Пираты Карибского моря: Мертвецы не рассказывают сказки / Pirates of the Caribbean: Dead Men Tell No Tales (Хоаким Роннинг / Joachim Rønning, Эспен Сандберг / Espen Sandberg) [2017, приключения, BDRip] [MP4, 960x] Galfimbul 23155814372.16 GB 0 0 1528025794

14:36

3-Июн-18

Видео (Фильмы/Клипы) ·· [VIDEO] Пираты Карибского моря: Мертвецы не рассказывают сказки / Pirates of the Caribbean: Dead Men Tell No Tales (Хоаким Роннинг / Joachim Rønning) [2017, фантастика, приключения, триллер, драма, BDRip] [MP4, 1280x] Galfimbul 35358554283.29 GB 0 0 1528023983

14:06

3-Июн-18

Видео (Фильмы/Клипы) ·· [VIDEO] Пираты Карибского моря: Мертвецы не рассказывают сказки / Pirates of the Caribbean: Dead Men Tell No Tales (Хоаким Роннинг, Эспен Сандберг / Joachim Rønning, Espen Sandberg) [2017, фэнтези, комедия, приключения, HDRip] [MP4, 1280x] Galfimbul 17553656351.63 GB 0 0 1508294553

05:42

18-Окт-17

Еще никто не оставлял запись к записи скачать торрент [VIDEO] Пираты Карибского моря: Мертвецы не рассказывают сказки Pirates of the Caribbean: Dead Men Tell No Tales . Будь первым!

!Обратная связь