Bleeding Steel (2017) | Aadhe Adhoore | Law Of The Jungle Ep.306

Скачать через торрент [VIDEO] Пираты Карибского моря: Мертвецы не рассказывают сказки Pirates of the Caribbean: Dead Men Tell No Tales бесплатно русская версия torrent активатор

Статистика раздачи
Размер:  3.29 GB   |    Зарегистрирован:  2 месяца 16 дней   |    .torrent скачан:  29 раз   |   
Раздают:  1  
   
загрузка...
 
Автор Сообщение

Galfimbul

avatar Galfimbul


Пираты Карибского моря: Мертвецы не рассказывают сказки / Pirates of the Caribbean: Dead Men Tell No Tales


Год выпуска: 2017
Страна: США, Великобритания, Венгрия, Канада
Жанр: фантастика, приключения, триллер, драма
Продолжительность: 02:09:07
Перевод №1: русский Профессиональный (полное дублирование) Blu-Ray EUR
Перевод №2: украинский Профессиональный (полное дублирование)
Перевод №3: русский Авторский (одноголосый, закадровый) Ю.Живов
Перевод №4: русский Одноголосый (закадровый) Solod
Оригинальная дорожка: Есть
Субтитры: русские (форсированные, полные), английские (полные)
Режиссеры: Хоаким Роннинг / Joachim Rønning, Эспен Сандберг / Espen Sandberg
В ролях: Джонни Депп, Кира Найтли, Кая Скоделарио, Дэвид Уэнэм, Орландо Блум, Джеффри Раш, Брентон Туэйтс, Хавьер Бардем, Голшифте Фарахани, Стивен Грэм и другие .
Описание: Исчерпавший свою удачу капитан Джек Воробей обнаруживает, что за ним охотится его старый неприятель, ужасный капитан Салазар и его призрачные пираты. Они только что сбежали из Дьявольского треугольника и намерены уничтожить всех пиратов, включая Джека. Поможет спастись лишь могущественный артефакт — трезубец Посейдона, который дарует своему обладателю полный контроль над морями .
Релиз группы

Качество: BDRip / рип с Blu-ray disc 1080p [EUR]
Формат: MP4
Видео кодек: H.264
Аудио кодек: AAC
Видео: 1280x532 AR:2.41 3000 kbps 23.976 fps
Аудио №1: [Russian] 2ch 48 kHz 128 kbps - [Dub] Профессиональный (полное дублирование) Blu-Ray EUR
Аудио №2: [Ukrainian] 2ch 48 kHz 128 kbps - [Dub] Профессиональный (полное дублирование)
Аудио №3: [Russian] 2ch 48 kHz 128 kbps - [VO] Авторский (одноголосый, закадровый) Ю.Живов
Аудио №4: [Russian] 2ch 48 kHz 128 kbps - [VO] Одноголосый (закадровый) Solod
Аудио №5: [English] 2ch 48 kHz 128 kbps - Original
avs [info]: 1280x532p 1:1 @ 24000/1001 fps (cfr)
x264 [info]: using SAR=1/1
x264 [info]: using cpu capabilities: MMX2 SSE2Fast SSSE3 SSE4.2 AVX FMA3 BMI2 AVX2
x264 [info]: profile High, level 4.1

x264 [info]: frame I:1614 Avg QP:18.46 size: 90833
x264 [info]: frame P:49473 Avg QP:22.14 size: 28171
x264 [info]: frame B:134661 Avg QP:24.09 size: 10136
x264 [info]: consecutive B-frames: 4.4% 6.1% 13.2% 29.3% 17.9% 25.5% 2.4% 0.6% 0.6%
x264 [info]: mb I I16..4: 5.1% 73.4% 21.5%
x264 [info]: mb P I16..4: 0.8% 10.8% 2.4% P16..4: 36.4% 37.5% 9.2% 0.0% 0.0% skip: 2.9%
x264 [info]: mb B I16..4: 0.1% 1.6% 0.4% B16..8: 38.6% 18.4% 2.6% direct: 4.3% skip:33.9% L0:43.0% L1:45.8% BI:11.3%
x264 [info]: 8x8 transform intra:76.5% inter:65.3%
x264 [info]: direct mvs spatial:96.7% temporal:3.3%
x264 [info]: coded y,uvDC,uvAC intra: 86.1% 79.8% 46.4% inter: 23.1% 16.9% 4.9%
x264 [info]: i16 v,h,dc,p: 11% 13% 4% 72%
x264 [info]: i8 v,h,dc,ddl,ddr,vr,hd,vl,hu: 10% 6% 3% 10% 16% 14% 15% 12% 13%
x264 [info]: i4 v,h,dc,ddl,ddr,vr,hd,vl,hu: 27% 5% 4% 8% 13% 12% 12% 9% 11%
x264 [info]: i8c dc,h,v,p: 34% 26% 20% 20%
x264 [info]: Weighted P-Frames: Y:15.6% UV:10.5%
x264 [info]: ref P L0: 50.6% 11.2% 15.7% 6.3% 4.8% 3.7% 3.3% 1.9% 1.9% 0.5% 0.0%
x264 [info]: ref B L0: 80.9% 8.8% 4.5% 2.1% 1.5% 1.3% 0.8% 0.3%
x264 [info]: ref B L1: 96.2% 3.8%
x264 [info]: kb/s:3000.05

encoded 185748 frames, 9.22 fps, 3000.05 kb/s
ОбщееПолное имя : D:\Torrents\Pirates of the Caribbean Dead Men Tell No Tales.2017.BDRip.x264.1280x.rip by Frost O.S.mp4Формат : MPEG-4Профиль формата : Base MediaИдентификатор кодека : isom (isom)Размер файла : 3,29 ГбайтПродолжительность : 2 ч. 9 м.Режим общего битрейта : ПеременныйОбщий поток : 3651 Кбит/секДата кодирования : UTC 2018-06-03 10:41:25Дата пометки : UTC 2018-06-03 10:41:25Программа кодирования : My MP4Box GUI 0.6.0.6

ВидеоИдентификатор : 1Формат : AVCФормат/Информация : Advanced Video CodecПрофиль формата : [email protected]Настройки формата : CABAC / 9 Ref FramesПараметр CABAC формата : ДаПараметр RefFrames формата : 9 кадровИдентификатор кодека : avc1Идентификатор кодека/Информация : Advanced Video CodingПродолжительность : 2 ч. 9 м.Битрейт : 3000 Кбит/секМаксимальный битрейт : 14,2 Мбит/секШирина : 1280 пикселейВысота : 532 пикселяСоотношение сторон : 2,40:1Режим частоты кадров : ПостоянныйЧастота кадров : 23,976 (24000/1001) кадра/секЦветовое пространство : YUVСубдискретизация насыщенности : 4:2:0Битовая глубина : 8 битТип развёртки : ПрогрессивнаяБит/(Пиксели*Кадры) : 0.184Размер потока : 2,71 Гбайт (82%)Заголовок : Pirates of the Caribbean Dead Men Tell No Tales.2017.BDRip.x264.1280x.rip by Frost O.SБиблиотека кодирования : x264 core 152 r2851 ba24899Настройки программы : cabac=1 / ref=9 / deblock=1:-2:-1 / analyse=0x3:0x113 / me=umh / subme=11 / psy=1 / psy_rd=0.90:0.00 / mixed_ref=1 / me_range=32 / chroma_me=1 / trellis=2 / 8x8dct=1 / cqm=0 / deadzone=21,11 / fast_pskip=0 / chroma_qp_offset=-2 / threads=6 / lookahead_threads=1 / sliced_threads=0 / nr=0 / decimate=0 / interlaced=0 / bluray_compat=0 / constrained_intra=0 / bframes=8 / b_pyramid=2 / b_adapt=2 / b_bias=0 / direct=3 / weightb=1 / open_gop=0 / weightp=2 / keyint=250 / keyint_min=23 / scenecut=40 / intra_refresh=0 / rc=2pass / mbtree=0 / bitrate=3000 / ratetol=1.0 / qcomp=0.70 / qpmin=0 / qpmax=69 / qpstep=4 / cplxblur=20.0 / qblur=0.5 / ip_ratio=1.40 / pb_ratio=1.30 / aq=2:0.90Дата кодирования : UTC 2018-06-01 17:57:19Дата пометки : UTC 2018-06-03 10:42:23Цветовой диапазон : LimitedОсновные цвета : BT.709Характеристики трансфера : BT.709Коэффициенты матрицы : BT.709

Аудио #1Идентификатор : 2Формат : AACФормат/Информация : Advanced Audio CodecПрофиль формата : LCИдентификатор кодека : mp4a-40-2Продолжительность : 2 ч. 9 м.Вид битрейта : ПеременныйБитрейт : 128 Кбит/секМаксимальный битрейт : 134 Кбит/секКаналы : 2 каналаРасположение каналов : Front: L RЧастота : 48,0 КГцЧастота кадров : 46,875 кадров/сек (1024 SPF)Метод сжатия : С потерямиРазмер потока : 118 Мбайт (4%)Заголовок : Russian / Dub, Blu-Ray EURДата кодирования : UTC 2018-06-03 10:41:44Дата пометки : UTC 2018-06-03 10:42:23

Аудио #2Идентификатор : 3Формат : AACФормат/Информация : Advanced Audio CodecПрофиль формата : LCИдентификатор кодека : mp4a-40-2Продолжительность : 2 ч. 9 м.Вид битрейта : ПеременныйБитрейт : 128 Кбит/секМаксимальный битрейт : 138 Кбит/секКаналы : 2 каналаРасположение каналов : Front: L RЧастота : 48,0 КГцЧастота кадров : 46,875 кадров/сек (1024 SPF)Метод сжатия : С потерямиРазмер потока : 118 Мбайт (4%)Заголовок : Ukrainian / DubДата кодирования : UTC 2018-06-03 10:41:57Дата пометки : UTC 2018-06-03 10:42:23

Аудио #3Идентификатор : 4Формат : AACФормат/Информация : Advanced Audio CodecПрофиль формата : LCИдентификатор кодека : mp4a-40-2Продолжительность : 2 ч. 9 м.Вид битрейта : ПеременныйБитрейт : 128 Кбит/секМаксимальный битрейт : 138 Кбит/секКаналы : 2 каналаРасположение каналов : Front: L RЧастота : 48,0 КГцЧастота кадров : 46,875 кадров/сек (1024 SPF)Метод сжатия : С потерямиРазмер потока : 118 Мбайт (4%)Заголовок : Russian / VO, ZhuvovДата кодирования : UTC 2018-06-03 10:42:06Дата пометки : UTC 2018-06-03 10:42:23

Аудио #4Идентификатор : 5Формат : AACФормат/Информация : Advanced Audio CodecПрофиль формата : LCИдентификатор кодека : mp4a-40-2Продолжительность : 2 ч. 9 м.Вид битрейта : ПеременныйБитрейт : 128 Кбит/секМаксимальный битрейт : 137 Кбит/секКаналы : 2 каналаРасположение каналов : Front: L RЧастота : 48,0 КГцЧастота кадров : 46,875 кадров/сек (1024 SPF)Метод сжатия : С потерямиРазмер потока : 118 Мбайт (4%)Заголовок : Russian / VO, SolodДата кодирования : UTC 2018-06-03 10:42:07Дата пометки : UTC 2018-06-03 10:42:23

Аудио #5Идентификатор : 6Формат : AACФормат/Информация : Advanced Audio CodecПрофиль формата : LCИдентификатор кодека : mp4a-40-2Продолжительность : 2 ч. 9 м.Вид битрейта : ПеременныйБитрейт : 128 Кбит/секМаксимальный битрейт : 135 Кбит/секКаналы : 2 каналаРасположение каналов : Front: L RЧастота : 48,0 КГцЧастота кадров : 46,875 кадров/сек (1024 SPF)Метод сжатия : С потерямиРазмер потока : 118 Мбайт (4%)Заголовок : English / OriginalДата кодирования : UTC 2018-06-03 10:42:17Дата пометки : UTC 2018-06-03 10:42:23

Текст #1Идентификатор : 7Формат : Timed TextИдентификатор кодека : tx3gПродолжительность : 1 ч. 18 м.Вид битрейта : ПеременныйБитрейт : 1 бит/секРазмер потока : 442 байт (0%)Заголовок : Russian / ForcedForced : НетДата кодирования : UTC 2018-06-03 10:42:23Дата пометки : UTC 2018-06-03 10:42:23

Текст #2Идентификатор : 8Формат : Timed TextИдентификатор кодека : tx3gПродолжительность : 2 ч. 0 м.Вид битрейта : ПеременныйБитрейт : 77 бит/секРазмер потока : 67,7 Кбайт (0%)Заголовок : Russian / FullForced : НетДата кодирования : UTC 2018-06-03 10:42:23Дата пометки : UTC 2018-06-03 10:42:23

Текст #3Идентификатор : 9Формат : Timed TextИдентификатор кодека : tx3gПродолжительность : 1 ч. 58 м.Вид битрейта : ПеременныйБитрейт : 51 бит/секРазмер потока : 44,0 Кбайт (0%)Заголовок : English / FullForced : НетДата кодирования : UTC 2018-06-03 10:42:23Дата пометки : UTC 2018-06-03 10:42:23


Трекер:  [ 03-Июн-2018 14:06 ]

  

Скачать .torrent

Размер .torrent файла 17 KB


Размер: 3.29 GB
Хэш (hash) релиза: 377429191b5d3fabc0bcf71a749fc735d7b865d8

Торренты, похожие на [VIDEO] Пираты Карибского моря: Мертвецы не рассказывают сказки Pirates of the Caribbean: Dead Men Tell No Tales скачать торрент

Форум Название Автор Размер S L Добавлен
Видео (Фильмы/Клипы) ·· [VIDEO] Пираты Карибского моря: Мертвецы не рассказывают сказки / Pirates of the Caribbean: Dead Men Tell No Tales (Хоаким Роннинг / Joachim Rønning, Эспен Сандберг / Espen Sandberg) [2017, приключения, BDRip] [3GP, 320x] Galfimbul 465476009444 MB 0 0 1528025804

14:36

3-Июн-18

Видео (Фильмы/Клипы) ·· [VIDEO] Пираты Карибского моря: Мертвецы не рассказывают сказки / Pirates of the Caribbean: Dead Men Tell No Tales (Хоаким Роннинг / Joachim Rønning, Эспен Сандберг / Espen Sandberg) [2017, приключения, BDRip] [MP4, 960x] Galfimbul 23155814372.16 GB 0 0 1528025794

14:36

3-Июн-18

Видео (Фильмы/Клипы) ·· [VIDEO] Пираты Карибского моря: Мертвецы не рассказывают сказки / Pirates of the Caribbean: Dead Men Tell No Tales (Хоаким Роннинг / Joachim Rønning, Эспен Сандберг / Espen Sandberg) [2017, приключения, BDRip] [MP4, 480x] Galfimbul 550371893525 MB 0 0 1528025785

14:36

3-Июн-18

Видео (Фильмы/Клипы) ·· [VIDEO] Пираты Карибского моря: Мертвецы не рассказывают сказки / Pirates of the Caribbean: Dead Men Tell No Tales (Хоаким Роннинг, Эспен Сандберг / Joachim Rønning, Espen Sandberg) [2017, фэнтези, комедия, приключения, HDRip] [MP4, 1280x] Galfimbul 17553656351.63 GB 0 0 1508294553

05:42

18-Окт-17

Еще никто не оставлял запись к записи скачать торрент [VIDEO] Пираты Карибского моря: Мертвецы не рассказывают сказки Pirates of the Caribbean: Dead Men Tell No Tales . Будь первым!

!Обратная связь