(m.i.k.e._presents_sector_7)-night_stop_vinyl_dj-nl_vs_dooly.sfv | Season 2 Episode 10 Bad Romance | Weekly Idol Episode 217

Скачать через торрент Банкрот Фильм бесплатно в хорошем качестве torrent

Скачивайте на UnionPeer.org фильмы через торрент без регистрации. Новинки кино в хорошем качестве через торрент. На UnionPeer.org можно скачать через торрент фильмы 2014 и 2015 годов. Самые новые фильмы.

Скачать торрент Банкрот бесплатно через .torrent фильм мультфильм сериал

Статистика раздачи
Размер:  1.46 GB   |    Зарегистрирован:  21 день   |    .torrent скачан:  42 раза   |   
Раздают:  1  
   
загрузка...
 
Автор Сообщение

Galfimbul

avatar Galfimbul


Банкрот

Жанр: комедия
Год выпуска: 2009
Продолжительность: 01:38:02

Режиссёр: Игорь Масленников

В ролях: Лия Ахеджакова, Владимир Акимов, Виктор Бычков, Юрий Гальцев, Леонид Кулагин, Янина Лакоба, Зинаида Шарко, Татьяна Тарасова, Нина Усатова, Артем Анчуков

Описание: Купец Самсон Силыч Большов занял крупную сумму денег. И, не желая ее возвращать, объявил о банкротстве. Все свое имущество он перевел на имя приказчика Лазаря Подхалюзина, за которого — для своего же спокойствия — выдает замуж дочь Липочку. Но у Подхалюзина зреет тайный план…

Сэмпл

Качество видео: SATRip
Формат видео: AVI

Видео: 688x384 (1.79:1), 25 fps, XviD build 73 ~1987 kbps avg, 0.30 bit/pixel
Аудио: 48 kHz, MPEG Layer 3, 2 ch, ~128.00 kbps avg
General
Complete name : H:\Банкрот.2009.satrip_[1.46]_[teko].avi
Format : AVI
Format/Info : Audio Video Interleave
File size : 1.46 GiB
Duration : 1h 38mn
Overall bit rate : 2 126 Kbps
Writing application : VirtualDubMod 1.5.10.3 | www.virtualdub-fr.org || (build 2550/release)
Writing library : VirtualDubMod build 2550/release

Video
ID : 0
Format : MPEG-4 Visual
Format profile : Advanced [email protected]
Format settings, BVOP : 2
Format settings, QPel : No
Format settings, GMC : No warppoints
Format settings, Matrix : Custom
Codec ID : XVID
Codec ID/Hint : XviD
Duration : 1h 38mn
Bit rate : 1 988 Kbps
Width : 688 pixels
Height : 384 pixels
Display aspect ratio : 16:9
Frame rate : 25.000 fps
Color space : YUV
Chroma subsampling : 4:2:0
Bit depth : 8 bits
Scan type : Progressive
Compression mode : Lossy
Bits/(Pixel*Frame) : 0.301
Stream size : 1.36 GiB (94%)
Writing library : XviD 73

Audio
ID : 1
Format : MPEG Audio
Format version : Version 1
Format profile : Layer 3
Codec ID : 55
Codec ID/Hint : MP3
Duration : 1h 38mn
Bit rate mode : Constant
Bit rate : 128 Kbps
Channel(s) : 2 channels
Sampling rate : 48.0 KHz
Compression mode : Lossy
Stream size : 89.8 MiB (6%)
Alignment : Aligned on interleaves
Interleave, duration : 40 ms (1.00 video frame)
Interleave, preload duratio : 504 ms
Writing library : LAME3.98r
Encoding settings : -m s -V 4 -q 2 -lowpass 17 -b 128


Трекер:  [ 03-Июн-2018 09:54 ]

  

Скачать .torrent

Размер .torrent файла 15 KB


Размер: 1.46 GB
Хэш (hash) релиза: 2d5db4eca7d2537ee5f9f73a5df80e5bbed85136
Подписка на обновления:

Торренты, похожие на Банкрот скачать торрент

Форум Название Автор Размер S L Добавлен
Российские фильмы до 2016 ·· Банкрот (Игорь Масленников) [2009, комедия, DVB] Galfimbul 26272419842.45 GB 0 0 1435145793

14:36

24-Июн-15

Еще никто не оставлял запись к записи скачать торрент Банкрот . Будь первым!

!Обратная связь