Jodi Ellen Malpas | KineMaster – Editor Video Pro | Windows 7 Glorious Edition (X64) 2015

Скачать через торрент Война двенадцати Juuni Taisen Фильм бесплатно в хорошем качестве torrent

Скачивайте на UnionPeer.org фильмы через торрент без регистрации. Новинки кино в хорошем качестве через торрент. На UnionPeer.org можно скачать через торрент фильмы 2014 и 2015 годов. Самые новые фильмы.

Скачать торрент Война двенадцати Juuni Taisen бесплатно через .torrent фильм мультфильм сериал

Статистика раздачи
Размер:  1.28 GB   |    Зарегистрирован:  1 месяц 16 дней   |    .torrent скачан:  30 раз   |   
Раздают:  1  
   
загрузка...
 
Автор Сообщение

Galfimbul

avatar Galfimbul


Война двенадцати
Оригинальное название: 十二大戦
Английское название: Juni Taisen: Zodiac War
Период трансляции: c 03.10.2017 по 19.12.2017
Страна: Япония
Жанр: приключения, фэнтези
Продолжительность: 12 эп. по ~24 мин.
Режиссер: Хосода Наото
Студия:
Перевод: Субтитры от AniPlay.TV
Переводчики: Darknight / Shiro/ Hariken / Крысёнек;
Редактура: bochka_konopli / Octupus / Оди / Lokker.
Описание: Число двенадцать очень символично для этого произведения. Раз в двенадцать лет проходит сражение по двенадцати фронтам. Почему же именно это сражение удостоилось стать частью истории? Потому что оно проводится в двенадцатый раз. И в каждой из таких битв принимает участие двенадцать свирепых воинов. Они называют себя именами китайского гороскопа, ведь знаков в нём тоже двенадцать. Крыса, Бык, Тигр, Кролик, Дракон, Змея, Лошадь, Коза, Обезьяна, Петух, Собака и Свинья жертвуют своими жизнями и душами во имя этого сражения.

Но в чём же смысл всех этих битв? А в том, что победитель сможет исполнить абсолютно любое своё желание, несмотря ни на что. Такое желание есть у каждого участника данного сражения, и они будут неистово биться насмерть, чтобы в итоге воплотить свою мечту в жизнь. Но кто же из этих бесстрашных двенадцати воинов удостоится этой чести? Чья военная стратегия окажется выигрышной? И чьё именно желание станет явью? Эта битва вот-вот начнётся, присоединяйтесь, чтобы узнать первыми.
01. Even Boars May Become Pigs After Seven Generations
02. Tricks Both Mongrel and Fowl
03. Cutting a Chicken with a Beef Cleaver
04. The Enemy, a Noble Primate
05. A Wolf in Sheep`s Clothing
06. Even a Champion Racehorse May Stumble
07. In Like a Dragon, Out Like a Snake (Part 1)
08. In Like a Dragon, Out Like a Snake (Part 2)
09. The Man Who Chases Two Rabbits Catches Neither
10. A Tiger May Die, but It Leaves Its Skin
11. To Treat a Man to Beef from His Own Cow
12. The One Wish That Must Be Granted, and the Ninety-nine That Can Be Done Without

Качество видео: WEBRip
Формат: MP4
Видео кодек: H.264
Аудио кодек: AAC
Видео: MPEG4 Video (H264) 480x272 23.976fps 511kbps
Аудио: AAC 44100Hz stereo 128kbps
Format : MPEG-4
Format profile : Base Media
Codec ID : isom (isom/avc1)
File size : 109 MiB
Duration : 23 min
Overall bit rate mode : Variable
Overall bit rate : 644 kb/s
Encoded date : UTC 2018-02-18 15:49:12
Tagged date : UTC 2018-02-18 15:49:12

Video
ID : 1
Format : AVC
Format/Info : Advanced Video Codec
Format profile : [email protected]
Format settings, CABAC : Yes
Format settings, ReFrames : 2 frames
Codec ID : avc1
Codec ID/Info : Advanced Video Coding
Duration : 23 min
Bit rate : 512 kb/s
Maximum bit rate : 2 582 kb/s
Width : 480 pixels
Height : 272 pixels
Display aspect ratio : 16:9
Frame rate mode : Constant
Frame rate : 23.976 (24000/1001) FPS
Original frame rate : 23.976 (23976/1000) FPS
Color space : YUV
Chroma subsampling : 4:2:0
Bit depth : 8 bits
Scan type : Progressive
Bits/(Pixel*Frame) : 0.164
Stream size : 86.6 MiB (79%)
Writing library : x264 core 65 r999kMod cc51047
Encoding settings : cabac=1 / ref=2 / deblock=1:-2:-1 / analyse=0x1:0x131 / me=umh / subme=7 / psy_rd=1.0:0.0 / mixed_ref=1 / me_range=16 / chroma_me=1 / trellis=2 / 8x8dct=0 / cqm=0 / deadzone=21,11 / chroma_qp_offset=-2 / threads=2 / thread_queue=2 / nr=0 / decimate=0 / mbaff=0 / bframes=3 / b_pyramid=0 / b_adapt=1 / b_bias=0 / direct=3 / wpredb=1 / keyint=250 / keyint_min=25 / scenecut=40(pre) / rc=2pass / bitrate=512 / ratetol=1.0 / qcomp=0.60 / qpmin=10 / qpmax=51 / qpstep=4 / cplxblur=20.0 / qblur=0.5 / ip_ratio=1.40 / pb_ratio=1.30 / aq=1:1.00
Encoded date : UTC 2018-02-18 15:49:12
Tagged date : UTC 2018-02-18 15:49:19

Audio
ID : 2
Format : AAC
Format/Info : Advanced Audio Codec
Format profile : LC
Codec ID : 40
Duration : 23 min
Bit rate mode : Variable
Bit rate : 129 kb/s
Maximum bit rate : 177 kb/s
Channel(s) : 2 channels
Channel positions : Front: L R
Sampling rate : 44.1 kHz
Frame rate : 43.066 FPS (1024 spf)
Compression mode : Lossy
Stream size : 21.8 MiB (20%)
Encoded date : UTC 2018-02-18 15:49:17
Tagged date : UTC 2018-02-18 15:49:19


Трекер:  [ 03-Июн-2018 03:06 ]

  

Скачать .torrent

Размер .torrent файла 14 KB


Размер: 1.28 GB
Хэш (hash) релиза: 22646e8cbf2a96c07403b0843772caf1e7f1d5cc
Подписка на обновления:

Еще никто не оставлял запись к записи скачать торрент Война двенадцати Juuni Taisen . Будь первым!

!Обратная связь