The Cloverfield Paradox | Fantasia | MASQUER LES COMMENTAIRES

Скачать через торрент [iPad] Собибор бесплатно русская версия torrent активатор

Статистика раздачи
Размер:  1.91 GB   |    Зарегистрирован:  22 дня   |    .torrent скачан:  64 раза   |   
Раздают:  1  
   
загрузка...
 
Автор Сообщение

Galfimbul

avatar Galfimbul


Собибор
«Подвиг, который мы забыли»

6.978 / 10 6.90 / 10
Год выпуска: 2018
Страна: Россия
Жанр: Военный, драма
Продолжительность: 01:57:05

Перевод: (Не требуется)
Оригинальная аудиодорожка: Есть
Cубтитры: Нет
Режиссёр: Константин Хабенский
Сценарий: Константин Хабенский, Александр Адабашьян, Анна Чернакова
Продюсер: Эльмира Айнулова, Глеб Фетисов, Мария Журомская
Оператор: Рамунас Грейчюс
Композитор: Кузьма Бодров
Художник: Юргита Гердвилайте, Гульнара Шахмилова
Монтаж: Юрий Троянкин
В ролях: Константин Хабенский, Кристофер Ламберт, Фелисе Янкелль, Дайнюс Казлаускас, Сергей Годин, Роман Агеев, Гела Месхи, Михалина Ольшанска, Мария Кожевникова, Вольфганг Черны

Сборы в России: $4 988 176

Мировая премьера: 4 мая 2018
Премьера (РФ): 3 мая 2018, «Каропрокат»

Цифровой релиз: 1 июня 2018, «All media»

Описание: История сопротивления человеческого духа бездушной машине уничтожения. В октябре 1943 года заключённые лагеря Собибор во главе с лейтенантом Красной Армии Александром Печерским поднимают восстание — единственное успешное восстание в нацистском лагере смерти.
Качество исходника: WEB-DL 1080p (BlueBird)
Качество: WEB-DLRip
Тип: SD (576p)
Контейнер: M4V
Видео: H.264, 1024x432, 2.40:1, 2 200 Kbps, 23.976 fps

Аудио: Русский/Оригинальная дорожка , AAC / 2.0 / 128 Kbps / 48.0 KHz
Sort Name: Собибор
XID: Apple:vendor_id:2018-905031
contentID: 1386486019
Copyright: © 2018 All Media Company
Screenwriters: Константин Хабенский, Александр Адабашьян, Анна Чернакова
Producers: Эльмира Айнулова, Глеб Фетисов, Мария Журомская
Director: Константин Хабенский
Cast: Константин Хабенский, Кристофер Ламберт, Фелисе Янкелль, Дайнюс Казлаускас, Сергей Годин, Роман Агеев, Гела Месхи, Михалина Ольшанска, Мария Кожевникова, Вольфганг Черны
Studio: Патриот Продакшнс
Rating: 134
Long Description: История сопротивления человеческого духа бездушной машине уничтожения. В октябре 1943 года заключённые лагеря Собибор во главе с лейтенантом Красной Армии Александром Печерским поднимают восстание - единственное успешное восстание в нацистском лагере смерти.
Description: История сопротивления человеческого духа бездушной машине уничтожения. В октябре 1943 года заключённые лагеря Собибор во главе с лейтенантом Красной Армии Александром Печерским поднимают восстание - единственное успешное восстание в нацистском лагере смерти.
Release Date: 2018-05-04T08:00:00Z
Genre: Drama
Artist: Константин Хабенский
Name: Собибор
General
Complete name : /Users/imac/HandBrake/Sobibor.(SD).(pk).m4v
Format : MPEG-4
Codec ID : M4V
File size : 1.91 GiB
Duration : 1h 57mn
Overall bit rate mode : Variable
Overall bit rate : 2 332 Kbps
Movie name : Собибор
Performer : Константин Хабенский
Director : Константин Хабенский
Actor : Константин Хабенский / Кристофер Ламберт / Фелисе Янкелль / Дайнюс Казлаускас / Сергей Годин / Роман Агеев / Гела Месхи / Михалина Ольшанска / Мария Кожевникова / Вольфганг Черны
Screenplay by : Константин Хабенский / Александр Адабашьян / Анна Чернакова
Producer : Эльмира Айнулова / Глеб Фетисов / Мария Журомская
Production studio : Патриот Продакшнс
Genre : Drama
ContentType : Short Film
Description : История сопротивления человеческого духа бездушной машине уничтожения. В октябре 1943 года заключённые лагеря Собибор во главе с лейтенантом Красной Армии Александром Печерским поднимают восстание - единственное успешное восстание в нацистском лагере смерти.
Recorded date : UTC 2018-05-04 08:00:00
Encoded date : UTC 2018-06-02 22:31:39
Tagged date : UTC 2018-06-02 22:31:55
Copyright : © 2018 All Media Company
Cover : Yes
Rating : None
Title/Sort : Собибор
LongDescription : История сопротивления человеческого духа бездушной машине уничтожения. В октябре 1943 года заключённые лагеря Собибор во главе с лейтенантом Красной Армии Александром Печерским поднимают восстание - единственное успешное восстание в нацистском лагере смерти.
AppleStoreCatalogID : 1386486019
Vendor : Apple:vendor_id:2018-905031
ContentRating : ru-movie|12+|200|

Video
ID : 1
Format : AVC
Format/Info : Advanced Video Codec
Format profile : [email protected]
Format settings, CABAC : Yes
Format settings, ReFrames : 9 frames
Codec ID : avc1
Codec ID/Info : Advanced Video Coding
Duration : 1h 57mn
Source duration : 1h 57mn
Bit rate : 2 200 Kbps
Width : 1 024 pixels
Height : 432 pixels
Display aspect ratio : 2.40:1
Frame rate mode : Variable
Frame rate : 23.976 fps
Minimum frame rate : 23.810 fps
Maximum frame rate : 23.981 fps
Color space : YUV
Chroma subsampling : 4:2:0
Bit depth : 8 bits
Scan type : Progressive
Bits/(Pixel*Frame) : 0.207
Stream size : 1.80 GiB (94%)
Source stream size : 1.80 GiB (94%)
Title : Main Program
Writing library : x264 core 155 r2893 b00bcaf
Encoding settings : cabac=1 / ref=9 / deblock=1:0:0 / analyse=0x3:0x113 / me=umh / subme=9 / psy=1 / psy_rd=1.00:0.00 / mixed_ref=1 / me_range=32 / chroma_me=1 / trellis=1 / 8x8dct=1 / cqm=0 / deadzone=21,11 / fast_pskip=1 / chroma_qp_offset=-2 / threads=13 / lookahead_threads=1 / sliced_threads=0 / nr=0 / decimate=1 / interlaced=0 / bluray_compat=0 / constrained_intra=0 / bframes=6 / b_pyramid=2 / b_adapt=2 / b_bias=0 / direct=1 / weightb=1 / open_gop=0 / weightp=2 / keyint=240 / keyint_min=24 / scenecut=40 / intra_refresh=0 / rc_lookahead=40 / rc=2pass / mbtree=1 / bitrate=2200 / ratetol=1.0 / qcomp=0.60 / qpmin=0 / qpmax=69 / qpstep=4 / cplxblur=20.0 / qblur=0.5 / ip_ratio=1.40 / aq=1:1.00
Language : Russian
Encoded date : UTC 2018-06-02 22:31:39
Tagged date : UTC 2018-06-02 22:31:45
Color range : Limited
Color primaries : BT.709
Transfer characteristics : BT.709
Matrix coefficients : BT.709

Audio
ID : 2
Format : AAC
Format/Info : Advanced Audio Codec
Format profile : LC
Codec ID : 40
Duration : 1h 57mn
Source duration : 1h 57mn
Bit rate mode : Variable
Bit rate : 126 Kbps
Maximum bit rate : 169 Kbps
Channel(s) : 2 channels
Channel positions : Front: L R
Sampling rate : 48.0 KHz
Compression mode : Lossy
Stream size : 105 MiB (5%)
Source stream size : 105 MiB (5%)
Title : Russian Stereo
Language : Russian
Encoded date : UTC 2018-06-02 22:31:39
Tagged date : UTC 2018-06-02 22:31:47
x264 [info]: frame I:1334  Avg QP:10.56  size: 68913
x264 [info]: frame P:44675 Avg QP:13.43  size: 23328
x264 [info]: frame B:122423 Avg QP:15.62  size:  6507
x264 [info]: consecutive B-frames:  3.0%  5.3%  7.4% 59.2%  8.8% 12.3%  4.0%
x264 [info]: mb I  I16..4:  8.9% 69.7% 21.3%
x264 [info]: mb P  I16..4:  1.3%  9.6%  2.3%  P16..4: 31.5% 30.6% 18.9%  0.0%  0.0%    skip: 5.7%
x264 [info]: mb B  I16..4:  0.1%  0.8%  0.3%  B16..8: 34.4% 14.4%  4.0%  direct: 6.3%  skip:39.7%  L0:42.1% L1:43.4% BI:14.5%
x264 [info]: 8x8 transform intra:72.1% inter:62.8%
x264 [info]: coded y,uvDC,uvAC intra: 88.8% 78.2% 55.9% inter: 30.7% 17.8% 2.7%
x264 [info]: i16 v,h,dc,p: 19% 10%  7% 64%
x264 [info]: i8 v,h,dc,ddl,ddr,vr,hd,vl,hu: 12%  9%  7%  9% 12% 13% 12% 12% 14%
x264 [info]: i4 v,h,dc,ddl,ddr,vr,hd,vl,hu:  9%  7%  3% 10% 15% 15% 14% 12% 14%
x264 [info]: i8c dc,h,v,p: 46% 25% 18% 11%
x264 [info]: Weighted P-Frames: Y:4.2% UV:1.4%
x264 [info]: ref P L0: 54.3%  8.4% 16.0%  6.5%  4.8%  3.5%  2.9%  1.8%  1.7%  0.1%  0.0%
x264 [info]: ref B L0: 77.6% 10.7%  5.0%  2.4%  1.8%  1.3%  0.9%  0.3%
x264 [info]: ref B L1: 95.6%  4.4%
x264 [info]: kb/s:2198.64

Релиз подготовлен для просмотра на Apple TV, iPad, iPhone, iPod Touch.
Для просмотра данного релиза на компьютере с ОС Windows рекомендуется использовать VLC media player

Трекер:  [ 03-Июн-2018 02:06 ]

  

Скачать .torrent

Размер .torrent файла 38 KB


Размер: 1.91 GB
Хэш (hash) релиза: 2fcc929416a9b1cf4c0ffc49d88f10862ffd6a5c

Еще никто не оставлял запись к записи скачать торрент [iPad] Собибор . Будь первым!

!Обратная связь