00-aretha_franklin-young_gifted_and_black-1993-llf.sfv | Charlie Puth - Done For Me (feat. Kehlani) | Selina Giles

Скачать через торрент Прислуга The Help бесплатно русская версия torrent активатор

Статистика раздачи
Размер:  23.54 GB   |    Зарегистрирован:  22 дня   |    .torrent скачан:  28 раз   |   
Раздают:  1  
   
загрузка...
 
Автор Сообщение

Galfimbul

avatar Galfimbul


Прислуга / The Help
"Change begins with a whisper"


Год выпуска: 2011
Страна: США, Индия, ОАЭ
Жанр: драма
Продолжительность: 146 мин.

Перевод: Многоголосый закадровый перевод
Оригинальная аудиодорожка: Есть
Cубтитры: Русские форсированные, русские полные и английские полные

Режиссёр: Тейт Тейлор
Сценарий: Тейт Тейлор, Кэтрин Стокетт
Продюсер: Майкл Барнатан, Крис Коламбус, Брунсон Грин
Оператор: Стивен Голдблатт
Композитор: Томас Ньюман
Художник: Марк Рикер, Курт Бич, Шэрен Дэвис
Монтаж: Хьюз Уинборн
В ролях: Эмма Стоун, Виола Дэвис, Брайс Даллас Ховард, Октавия Спенсер, Джессика Честейн, Ана О’Райли, Эллисон Дженни, Сисси Спейсек, Сисели Тайсон, Мэри Стинберген

Бюджет: $25 000 000
Сборы в США: $169 708 112
Сборы в мире: + $46 931 000 = $216 639 112
Сборы в России: $63 000

Мировая премьера: 9 августа 2011
Премьера (РФ): 16 февраля 2012, WDSSPR
Релиз на Blu-Ray: 27 марта 2012, Уолт Дисней Компани СНГ
Релиз на DVD: 27 марта 2012, Уолт Дисней Компани СНГ

Описание: Американский Юг, на дворе 1960-е годы. Скитер только-только закончила университет и возвращается домой, в сонный городок Джексон, где никогда ничего не происходит. Она мечтает стать писательницей, вырваться в большой мир. Но для приличной девушки с Юга не пристало тешиться столь глупыми иллюзиями, приличной девушке следует выйти замуж и хлопотать по дому.
Мудрая Эйбилин на тридцать лет старше Скитер, она прислуживает в домах белых всю свою жизнь, вынянчила семнадцать детей и давно уже ничего не ждет от жизни, ибо сердце ее разбито после смерти единственного сына.
Минни - самая лучшая стряпуха во всем Джексоне, а еще она самая дерзкая служанка в городе. И острый язык не раз уже сослужил ей плохую службу. На одном месте Минни никогда подолгу не задерживается. Но с Минни лучше не связываться даже самым высокомерным белым дамочкам. Двух черных служанок и белую неопытную девушку объединяет одно - обостренное чувство справедливости и желание хоть как-то изменить порядок вещей. Смогут ли эти трое противостоять целому миру? Сумеют ли они выжить в этой борьбе?
Качество исходника: BDRemux 1080p
Качество: BDRip
Тип: 480p 720p 1080p
Контейнер: m4v
Видео: 640x460 анаморф 852x460 at 23.976 fps, MPEG-4 AVC, ~1600 kbps avg
Видео: 1280х692 at 23.976 fps, MPEG-4 AVC, ~4700 kbps avg
Видео: 1920х1036 at 23.976 fps, MPEG-4 AVC, ~14000 kbps avg
Аудио#1: Russian: 48 kHz, ААС, 2/0 (L,R), ~128.00 / 160.00 kbps avg |Многоголосый закадровый, Blu-Ray|
Аудио#2: English: 48 kHz, ААС, 2/0 (L,R), ~128.00 / 160.00 kbps avg
Аудио#3: Russian: 48 kHz, AC3, 3/2 (L,C,R,l,r) + LFE ch, ~448.00 kbps avg |Многоголосый закадровый, Blu-Ray|
Аудио#4: English: 48 kHz, AC3, 3/2 (L,C,R,l,r) + LFE ch, ~448.00 kbps avg
Субтитры №1: Russian: |Форсированные|
Субтитры №2: Russian: |Полные|
Субтитры №3: English: |Полные|
Фильм снят по мотивам дебютного романа Кэтрин Стокетт «Прислуга» (The Help, 2009). На момент выхода фильма за два с половиной года было продано свыше 5 миллионов экземпляров романа.
На роль Селии пробовалась Мелисса Молинаро.
Фильм 25 дней подряд возглавлял ежедневный американский чарт кассовых сборов.
До того как «Прислуга» была опубликована, роман отвергли как минимум 60 литературных агентов.
Друг детства писательницы, режиссёр Тейт Тейлор, получил права на роман ещё до публикации книги.
Книжный магазин в фильме Avent & Clark получил своё имя в честь ассистента продюсера Авента Кларка.
Основой для персонажа Минни в романе Кэтрин Стокетт послужила сама Октавия Спенсер, которая была другом детства писательницы. Кроме того она же ещё в 2009 году читала текст в выпущенной тогда одновременно с печатным изданием аудиокниге.
Висящие над камином Селии картины были найдены в подвале местного госпиталя. Два кресла из этой же сцены были взяты в магазине подержанной мебели.
Брайс Даллас Ховард и Эмма Стоун обе сыграли Гвен Стэйси в «Человеке-пауке» за исключением того, что вторая из них была в новой его интерпретации.

Name: Прислуга
Artist: Tate Taylor
Genre: Drama
Release Date: 2011-08-09T08:00:00Z
Description: Американский Юг, на дворе 1960-е годы. Скитер только-только закончила университет и возвращается домой, в сонный городок Джексон, где никогда ничего не происходит. Она мечтает стать писательницей, вырваться в большой мир...
Long Description: Американский Юг, на дворе 1960-е годы. Скитер только-только закончила университет и возвращается домой, в сонный городок Джексон, где никогда ничего не происходит. Она мечтает стать писательницей, вырваться в большой мир. Но для приличной девушки с Юга не пристало тешиться столь глупыми иллюзиями, приличной девушке следует выйти замуж и хлопотать по дому.
Мудрая Эйбилин на тридцать лет старше Скитер, она прислуживает в домах белых всю свою жизнь, вынянчила семнадцать детей и давно уже ничего не ждет от жизни, ибо сердце ее разбито после смерти единственного сына.
Минни - самая лучшая стряпуха во всем Джексоне, а еще она самая дерзкая служанка в городе. И острый язык не раз уже сослужил ей плохую службу. На одном месте Минни никогда подолгу не задерживается. Но с Минни лучше не связываться даже самым высокомерным белым дамочкам. Двух черных служанок и белую неопытную девушку объединяет одно - обостренное чувство справедливости и желание хоть как-то изменить порядок вещей. Смогут ли эти трое противостоять целому миру? Сумеют ли они выжить в этой борьбе?
Rating: 16+
Rating Annotation: Rated 16+ Для зрителей, достигших возраста 16 лет
Studio: Touchstone Pictures
Cast: Эмма Стоун, Виола Дэвис, Брайс Даллас Ховард, Октавия Спенсер, Джессика Честейн, Ана О’Райли, Эллисон Дженни, Сисси Спейсек, Сисели Тайсон, Мэри Стинберген
Director: Тейт Тейлор
Producers: Майкл Барнатан, Крис Коламбус, Брунсон Грин
Screenwriters: Тейт Тейлор, Кэтрин Стокетт
Copyright: © 2011 DreamWorks
contentID: 620253060
XID: Apple:vendor_id:2011-470553
Sort Name: Прислуга
Name: The Help
Artist: Tate Taylor
Genre: Drama
Release Date: 2011-08-09T08:00:00Z
Description: Американский Юг, на дворе 1960-е годы. Скитер только-только закончила университет и возвращается домой, в сонный городок Джексон, где никогда ничего не происходит. Она мечтает стать писательницей, вырваться в большой мир...
Long Description: Американский Юг, на дворе 1960-е годы. Скитер только-только закончила университет и возвращается домой, в сонный городок Джексон, где никогда ничего не происходит. Она мечтает стать писательницей, вырваться в большой мир. Но для приличной девушки с Юга не пристало тешиться столь глупыми иллюзиями, приличной девушке следует выйти замуж и хлопотать по дому.
Мудрая Эйбилин на тридцать лет старше Скитер, она прислуживает в домах белых всю свою жизнь, вынянчила семнадцать детей и давно уже ничего не ждет от жизни, ибо сердце ее разбито после смерти единственного сына.
Минни - самая лучшая стряпуха во всем Джексоне, а еще она самая дерзкая служанка в городе. И острый язык не раз уже сослужил ей плохую службу. На одном месте Минни никогда подолгу не задерживается. Но с Минни лучше не связываться даже самым высокомерным белым дамочкам. Двух черных служанок и белую неопытную девушку объединяет одно - обостренное чувство справедливости и желание хоть как-то изменить порядок вещей. Смогут ли эти трое противостоять целому миру? Сумеют ли они выжить в этой борьбе?
Rating: PG-13
Rating Annotation: Rated PG-13 For Thematic Material.
Studio: Touchstone Pictures
Cast: Эмма Стоун, Виола Дэвис, Брайс Даллас Ховард, Октавия Спенсер, Джессика Честейн, Ана О’Райли, Эллисон Дженни, Сисси Спейсек, Сисели Тайсон, Мэри Стинберген
Director: Тейт Тейлор
Producers: Майкл Барнатан, Крис Коламбус, Брунсон Грин
Screenwriters: Тейт Тейлор, Кэтрин Стокетт
Copyright: © 2011 DREAMWORKS II DISTRIBUTION CO., LLC
contentID: 458062374
XID: Apple:vendor_id:2011-470553
Sort Name: Help
General
Complete name                            : The Help.m4v
Format                                   : MPEG-4
Codec ID                                 : M4V  (M4V /M4A /mp42/isom)
File size                                : 1.91 GiB
Duration                                 : 2h 26mn
Overall bit rate mode                    : Variable
Overall bit rate                         : 1 873 Kbps
Movie name                               : The Help
Performer                                : Tate Taylor
Director                                 : Тейт Тейлор
Actor                                    : Эмма Стоун / Виола Дэвис / Брайс Даллас Ховард / Октавия Спенсер / Джессика Честейн / Ана О’Райли / Эллисон Дженни / Сисси Спейсек / Сисели Тайсон / Мэри Стинберген
Screenplay by                            : Тейт Тейлор / Кэтрин Стокетт
Producer                                 : Майкл Барнатан / Крис Коламбус / Брунсон Грин
Production studio                        : Touchstone Pictures
Genre                                    : Drama
ContentType                              : Short Film
Description                              : Американский Юг, на дворе 1960-е годы. Скитер только-только закончила университет и возвращается домой, в сонный городок Джексон, где никогда ничего не происходит. Она мечтает стать писательницей, вырваться в большой мир...
Recorded date                            : UTC 2011-08-09 08:00:00
Encoded date                             : UTC 2013-02-24 13:24:15
Tagged date                              : UTC 2018-05-06 09:44:35
Copyright                                : © 2011 DREAMWORKS II DISTRIBUTION CO., LLC
Cover                                    : Yes
Rating                                   : None
Title/Sort                               : Help
LongDescription                          : Американский Юг, на дворе 1960-е годы. Скитер только-только закончила университет и возвращается домой, в сонный городок Джексон, где никогда ничего не происходит. Она мечтает стать писательницей, вырваться в большой мир. Но для приличной девушки с Юга не пристало тешиться столь глупыми иллюзиями, приличной девушке следует выйти замуж и хлопотать по дому. / Мудрая Эйбилин на тридцать лет старше Скитер, она прислуживает в домах белых всю свою жизнь, вынянчила семнадцать детей и давно уже ничего не ждет от жизни, ибо сердце ее разбито после смерти единственного сына. / Минни - самая лучшая стряпуха во всем Джексоне, а еще она самая дерзкая служанка в городе. И острый язык не раз уже сослужил ей плохую службу. На одном месте Минни никогда подолгу не задерживается. Но с Минни лучше не связываться даже самым высокомерным белым дамочкам. Двух черных служанок и белую неопытную девушку объединяет одно - обостренное чувство справедливости и желание хоть как-то изменить порядок вещей. Смогут ли эти трое противостоять целому миру? Сумеют ли они выжить в этой борьбе?
AppleStoreCatalogID                      : 458062374
Vendor                                   : Apple:vendor_id:2011-470553
ContentRating                            : mpaa|PG-13|300|Rated PG-13 For Thematic Material.

Video #1
ID                                       : 1
Format                                   : AVC
Format/Info                              : Advanced Video Codec
Format profile                           : [email protected]
Format settings                          : 2 Ref Frames
Format settings, CABAC                   : No
Format settings, ReFrames                : 2 frames
Codec ID                                 : avc1
Codec ID/Info                            : Advanced Video Coding
Duration                                 : 2h 26mn
Bit rate                                 : 1 600 Kbps
Width                                    : 640 pixels
Height                                   : 460 pixels
Display aspect ratio                     : 1.85:1
Frame rate mode                          : Variable
Frame rate                               : 23.976 (24000/1001) fps
Minimum frame rate                       : 23.810 fps
Maximum frame rate                       : 24.390 fps
Color space                              : YUV
Chroma subsampling                       : 4:2:0
Bit depth                                : 8 bits
Scan type                                : Progressive
Bits/(Pixel*Frame)                       : 0.227
Stream size                              : 1.63 GiB (85%)
Title                                    : Main Program
Writing library                          : x264 core 112
Encoding settings                        : cabac=0 / ref=2 / deblock=1:-2:-1 / analyse=0x1:0x131 / me=umh / subme=6 / psy=1 / psy_rd=0.00:0.00 / mixed_ref=1 / me_range=24 / chroma_me=1 / trellis=0 / 8x8dct=0 / cqm=0 / deadzone=21,11 / fast_pskip=0 / chroma_qp_offset=0 / threads=12 / sliced_threads=0 / nr=0 / decimate=1 / interlaced=0 / constrained_intra=0 / bframes=0 / weightp=0 / keyint=240 / keyint_min=23 / scenecut=40 / intra_refresh=0 / rc_lookahead=40 / rc=2pass / mbtree=1 / bitrate=1600 / ratetol=1.0 / qcomp=0.60 / qpmin=3 / qpmax=51 / qpstep=4 / cplxblur=20.0 / qblur=0.5 / ip_ratio=1.40 / aq=1:1.00
Language                                 : English
Encoded date                             : UTC 2013-02-24 13:24:16
Tagged date                              : UTC 2013-02-24 13:28:17
Color range                              : Limited
Color primaries                          : BT.709
Transfer characteristics                 : BT.709
Matrix coefficients                      : BT.709
Menus                                    : 7,8

Video #2
ID                                       : 8
Format                                   : JPEG
Codec ID                                 : jpeg
Duration                                 : 2h 26mn
Bit rate mode                            : Variable
Bit rate                                 : 927 bps
Width                                    : 640 pixels
Height                                   : 345 pixels
Display aspect ratio                     : 1.85:1
Frame rate mode                          : Variable
Frame rate                               : 0.002 fps
Minimum frame rate                       : 0.001 fps
Maximum frame rate                       : 0.003 fps
Color space                              : YUV
Chroma subsampling                       : 4:2:0
Bit depth                                : 8 bits
Compression mode                         : Lossy
Bits/(Pixel*Frame)                       : 2.099
Stream size                              : 906 KiB (0%)
Title                                    : Chapter Images
Language                                 : English
Default                                  : No
Encoded date                             : UTC 2018-05-06 09:43:24
Tagged date                              : UTC 2018-05-06 09:43:24
Menu For                                 : 1
ColorSpace_ICC                           : RGB

Audio #1
ID                                       : 2
Format                                   : AAC
Format/Info                              : Advanced Audio Codec
Format profile                           : LC
Codec ID                                 : mp4a-40-2
Duration                                 : 2h 26mn
Bit rate mode                            : Variable
Bit rate                                 : 132 Kbps
Maximum bit rate                         : 220 Kbps
Channel(s)                               : 2 channels
Channel positions                        : Front: L R
Sampling rate                            : 48.0 KHz
Frame rate                               : 46.875 fps (1024 SPF)
Compression mode                         : Lossy
Stream size                              : 138 MiB (7%)
Title                                    : Russian MVO Blu-Ray Stereo
Language                                 : Russian
Default                                  : Yes
Alternate group                          : 1
Encoded date                             : UTC 2013-02-24 13:24:16
Tagged date                              : UTC 2013-02-24 13:24:53
Subtitles                                : 4,5
Menus                                    : 7

Audio #2
ID                                       : 3
Format                                   : AAC
Format/Info                              : Advanced Audio Codec
Format profile                           : LC
Codec ID                                 : mp4a-40-2
Duration                                 : 2h 26mn
Bit rate mode                            : Variable
Bit rate                                 : 132 Kbps
Maximum bit rate                         : 220 Kbps
Channel(s)                               : 2 channels
Channel positions                        : Front: L R
Sampling rate                            : 48.0 KHz
Frame rate                               : 46.875 fps (1024 SPF)
Compression mode                         : Lossy
Stream size                              : 138 MiB (7%)
Title                                    : English Stereo
Language                                 : English
Default                                  : No
Alternate group                          : 1
Encoded date                             : UTC 2013-02-24 13:24:16
Tagged date                              : UTC 2013-02-24 13:28:22

Text #1
ID                                       : 4
Format                                   : Timed Text
Muxing mode                              : sbtl
Codec ID                                 : tx3g
Duration                                 : 2h 11mn
Bit rate mode                            : Variable
Bit rate                                 : 0 bps
Stream size                              : 366 Bytes (0%)
Title                                    : Russian Forced Subtitle
Language                                 : Russian
Default                                  : Yes
Forced                                   : Yes
Alternate group                          : 2
Encoded date                             : UTC 2013-02-24 13:24:16
Tagged date                              : UTC 2013-02-24 13:28:22
Subtitles For                            : 2
Full Alternative                         : 5

Text #2
ID                                       : 5
Format                                   : Timed Text
Muxing mode                              : sbtl
Codec ID                                 : tx3g
Duration                                 : 2h 18mn
Bit rate mode                            : Variable
Bit rate                                 : 92 bps
Stream size                              : 93.6 KiB (0%)
Title                                    : Russian Subtitle
Language                                 : Russian
Default                                  : No
Forced                                   : No
Alternate group                          : 2
Encoded date                             : UTC 2013-02-24 13:24:16
Tagged date                              : UTC 2013-02-24 13:28:22
Subtitles For                            : 2
Forced Alternative                       : 4

Text #3
ID                                       : 6
Format                                   : Timed Text
Muxing mode                              : sbtl
Codec ID                                 : tx3g
Duration                                 : 2h 18mn
Bit rate mode                            : Variable
Bit rate                                 : 71 bps
Stream size                              : 71.4 KiB (0%)
Title                                    : English Subtitle
Language                                 : English
Default                                  : No
Forced                                   : No
Alternate group                          : 2
Encoded date                             : UTC 2013-02-24 13:24:16
Tagged date                              : UTC 2013-02-24 13:28:22

Menu #1
00:00:00.000                             : The Help
00:09:39.870                             : Bridge Club
00:17:53.781                             : Skeeter
00:26:10.986                             : The Storm
00:33:42.145                             : Courage
00:46:05.679                             : Minny's New Job
00:52:59.092                             : Not Good Enough
01:04:12.723                             : Separate, But Equal
01:19:51.119                             : More Stories
01:31:14.051                             : Terrible Awful
01:40:54.673                             : Benefit Dinner
01:48:10.525                             : One More Story
01:55:14.115                             : The Book
02:03:43.707                             : Thank You
02:12:47.000                             : The Truth
02:18:32.679                             : End Credits

Menu #2
ID                                       : 7
Codec ID                                 : text
Duration                                 : 2h 26mn
Title                                    : Chapter Titles
Language                                 : English
Encoded date                             : UTC 2018-05-06 09:43:21
Tagged date                              : UTC 2018-05-06 09:43:21
Menu For                                 : 2,1
00:00:00.000                             : The Help
00:09:39.870                             : Bridge Club
00:17:53.781                             : Skeeter
00:26:10.986                             : The Storm
00:33:42.145                             : Courage
00:46:05.679                             : Minny's New Job
00:52:59.092                             : Not Good Enough
01:04:12.723                             : Separate, But Equal
01:19:51.119                             : More Stories
01:31:14.051                             : Terrible Awful
01:40:54.673                             : Benefit Dinner
01:48:10.525                             : One More Story
01:55:14.115                             : The Book
02:03:43.707                             : Thank You
02:12:47.000                             : The Truth
02:18:32.679                             : End Credits
Bit rate mode                            : VBR
General
Complete name                            : The Help (HD).m4v
Format                                   : MPEG-4
Codec ID                                 : M4V  (M4V /M4A /mp42/isom)
File size                                : 6.06 GiB
Duration                                 : 2h 26mn
Overall bit rate mode                    : Variable
Overall bit rate                         : 5 936 Kbps
Movie name                               : The Help
Performer                                : Tate Taylor
Director                                 : Тейт Тейлор
Actor                                    : Эмма Стоун / Виола Дэвис / Брайс Даллас Ховард / Октавия Спенсер / Джессика Честейн / Ана О’Райли / Эллисон Дженни / Сисси Спейсек / Сисели Тайсон / Мэри Стинберген
Screenplay by                            : Тейт Тейлор / Кэтрин Стокетт
Producer                                 : Майкл Барнатан / Крис Коламбус / Брунсон Грин
Production studio                        : Touchstone Pictures
Genre                                    : Drama
ContentType                              : Short Film
Description                              : Американский Юг, на дворе 1960-е годы. Скитер только-только закончила университет и возвращается домой, в сонный городок Джексон, где никогда ничего не происходит. Она мечтает стать писательницей, вырваться в большой мир...
Recorded date                            : UTC 2011-08-09 08:00:00
Encoded date                             : UTC 2013-02-24 13:01:36
Tagged date                              : UTC 2018-05-06 09:44:06
Copyright                                : © 2011 DREAMWORKS II DISTRIBUTION CO., LLC
Cover                                    : Yes
Rating                                   : None
Title/Sort                               : Help
LongDescription                          : Американский Юг, на дворе 1960-е годы. Скитер только-только закончила университет и возвращается домой, в сонный городок Джексон, где никогда ничего не происходит. Она мечтает стать писательницей, вырваться в большой мир. Но для приличной девушки с Юга не пристало тешиться столь глупыми иллюзиями, приличной девушке следует выйти замуж и хлопотать по дому. / Мудрая Эйбилин на тридцать лет старше Скитер, она прислуживает в домах белых всю свою жизнь, вынянчила семнадцать детей и давно уже ничего не ждет от жизни, ибо сердце ее разбито после смерти единственного сына. / Минни - самая лучшая стряпуха во всем Джексоне, а еще она самая дерзкая служанка в городе. И острый язык не раз уже сослужил ей плохую службу. На одном месте Минни никогда подолгу не задерживается. Но с Минни лучше не связываться даже самым высокомерным белым дамочкам. Двух черных служанок и белую неопытную девушку объединяет одно - обостренное чувство справедливости и желание хоть как-то изменить порядок вещей. Смогут ли эти трое противостоять целому миру? Сумеют ли они выжить в этой борьбе?
HDVideo                                  : Yes
AppleStoreCatalogID                      : 458062374
Vendor                                   : Apple:vendor_id:2011-470553
ContentRating                            : mpaa|PG-13|300|Rated PG-13 For Thematic Material.

Video #1
ID                                       : 1
Format                                   : AVC
Format/Info                              : Advanced Video Codec
Format profile                           : [email protected]
Format settings                          : 3 Ref Frames
Format settings, CABAC                   : No
Format settings, ReFrames                : 3 frames
Codec ID                                 : avc1
Codec ID/Info                            : Advanced Video Coding
Duration                                 : 2h 26mn
Bit rate                                 : 4 700 Kbps
Width                                    : 1 280 pixels
Height                                   : 692 pixels
Display aspect ratio                     : 1.85:1
Frame rate mode                          : Variable
Frame rate                               : 23.976 (24000/1001) fps
Minimum frame rate                       : 23.810 fps
Maximum frame rate                       : 24.390 fps
Color space                              : YUV
Chroma subsampling                       : 4:2:0
Bit depth                                : 8 bits
Scan type                                : Progressive
Bits/(Pixel*Frame)                       : 0.221
Stream size                              : 4.80 GiB (79%)
Title                                    : Main Program
Writing library                          : x264 core 112
Encoding settings                        : cabac=0 / ref=3 / deblock=1:-2:-1 / analyse=0x3:0x113 / me=umh / subme=9 / psy=1 / psy_rd=1.00:0.00 / mixed_ref=1 / me_range=32 / chroma_me=1 / trellis=0 / 8x8dct=1 / cqm=0 / deadzone=21,11 / fast_pskip=1 / chroma_qp_offset=-2 / threads=12 / sliced_threads=0 / nr=0 / decimate=1 / interlaced=0 / constrained_intra=0 / bframes=8 / b_pyramid=0 / b_adapt=1 / b_bias=0 / direct=1 / weightb=0 / open_gop=0 / weightp=0 / keyint=240 / keyint_min=23 / scenecut=40 / intra_refresh=0 / rc_lookahead=40 / rc=2pass / mbtree=1 / bitrate=4700 / ratetol=1.0 / qcomp=0.60 / qpmin=3 / qpmax=51 / qpstep=4 / cplxblur=20.0 / qblur=0.5 / vbv_maxrate=9500 / vbv_bufsize=9500 / ip_ratio=1.40 / aq=1:1.05 / nal_hrd=none
Language                                 : English
Encoded date                             : UTC 2013-02-24 13:01:38
Tagged date                              : UTC 2013-02-24 13:15:57
Color range                              : Limited
Color primaries                          : BT.709
Transfer characteristics                 : BT.709
Matrix coefficients                      : BT.709
Menus                                    : 9,10

Video #2
ID                                       : 10
Format                                   : JPEG
Codec ID                                 : jpeg
Duration                                 : 2h 26mn
Bit rate mode                            : Variable
Bit rate                                 : 1 003 bps
Width                                    : 640 pixels
Height                                   : 346 pixels
Display aspect ratio                     : 1.85:1
Frame rate mode                          : Variable
Frame rate                               : 0.002 fps
Minimum frame rate                       : 0.001 fps
Maximum frame rate                       : 0.003 fps
Color space                              : YUV
Chroma subsampling                       : 4:2:0
Bit depth                                : 8 bits
Compression mode                         : Lossy
Bits/(Pixel*Frame)                       : 2.265
Stream size                              : 979 KiB (0%)
Title                                    : Chapter Images
Language                                 : English
Default                                  : No
Encoded date                             : UTC 2018-05-06 09:43:43
Tagged date                              : UTC 2018-05-06 09:43:43
Menu For                                 : 1
ColorSpace_ICC                           : RGB

Audio #1
ID                                       : 2
Format                                   : AAC
Format/Info                              : Advanced Audio Codec
Format profile                           : LC
Codec ID                                 : mp4a-40-2
Duration                                 : 2h 26mn
Bit rate mode                            : Variable
Bit rate                                 : 165 Kbps
Maximum bit rate                         : 264 Kbps
Channel(s)                               : 2 channels
Channel positions                        : Front: L R
Sampling rate                            : 48.0 KHz
Frame rate                               : 46.875 fps (1024 SPF)
Compression mode                         : Lossy
Stream size                              : 172 MiB (3%)
Title                                    : Russian MVO Blu-Ray Stereo
Language                                 : Russian
Default                                  : Yes
Alternate group                          : 1
Encoded date                             : UTC 2013-02-24 13:01:38
Tagged date                              : UTC 2013-02-24 13:06:24
Fallback From                            : 4
Subtitles                                : 6,7
Menus                                    : 9

Audio #2
ID                                       : 3
Format                                   : AAC
Format/Info                              : Advanced Audio Codec
Format profile                           : LC
Codec ID                                 : mp4a-40-2
Duration                                 : 2h 26mn
Bit rate mode                            : Variable
Bit rate                                 : 165 Kbps
Maximum bit rate                         : 262 Kbps
Channel(s)                               : 2 channels
Channel positions                        : Front: L R
Sampling rate                            : 48.0 KHz
Frame rate                               : 46.875 fps (1024 SPF)
Compression mode                         : Lossy
Stream size                              : 172 MiB (3%)
Title                                    : English Stereo
Language                                 : English
Default                                  : No
Alternate group                          : 1
Encoded date                             : UTC 2013-02-24 13:01:38
Tagged date                              : UTC 2013-02-24 13:17:39
Fallback From                            : 5

Audio #3
ID                                       : 4
Format                                   : AC-3
Format/Info                              : Audio Coding 3
Codec ID                                 : ac-3
Duration                                 : 2h 26mn
Bit rate mode                            : Constant
Bit rate                                 : 448 Kbps
Channel(s)                               : 6 channels
Channel positions                        : Front: L C R, Side: L R, LFE
Sampling rate                            : 48.0 KHz
Frame rate                               : 31.250 fps (1536 SPF)
Bit depth                                : 16 bits
Compression mode                         : Lossy
Stream size                              : 469 MiB (8%)
Title                                    : Russian MVO Blu-Ray DD 5.1
Language                                 : Russian
Service kind                             : Complete Main
Default                                  : Inherited From: 2
Alternate group                          : 1
Encoded date                             : UTC 2013-02-24 13:01:38
Tagged date                              : UTC 2013-02-24 13:19:42
Fallback To                              : 2
Subtitles                                : 6,7

Audio #4
ID                                       : 5
Format                                   : AC-3
Format/Info                              : Audio Coding 3
Codec ID                                 : ac-3
Duration                                 : 2h 26mn
Bit rate mode                            : Constant
Bit rate                                 : 448 Kbps
Channel(s)                               : 6 channels
Channel positions                        : Front: L C R, Side: L R, LFE
Sampling rate                            : 48.0 KHz
Frame rate                               : 31.250 fps (1536 SPF)
Bit depth                                : 16 bits
Compression mode                         : Lossy
Stream size                              : 469 MiB (8%)
Title                                    : English DD 5.1
Language                                 : English
Service kind                             : Complete Main
Default                                  : No
Alternate group                          : 1
Encoded date                             : UTC 2013-02-24 13:01:38
Tagged date                              : UTC 2013-02-24 13:21:48
Fallback To                              : 3

Text #1
ID                                       : 6
Format                                   : Timed Text
Muxing mode                              : sbtl
Codec ID                                 : tx3g
Duration                                 : 2h 11mn
Bit rate mode                            : Variable
Bit rate                                 : 0 bps
Stream size                              : 366 Bytes (0%)
Title                                    : Russian Forced Subtitle
Language                                 : Russian
Default                                  : Yes
Forced                                   : Yes
Alternate group                          : 2
Encoded date                             : UTC 2013-02-24 13:01:38
Tagged date                              : UTC 2013-02-24 13:21:48
Subtitles For                            : 2,4
Full Alternative                         : 7

Text #2
ID                                       : 7
Format                                   : Timed Text
Muxing mode                              : sbtl
Codec ID                                 : tx3g
Duration                                 : 2h 18mn
Bit rate mode                            : Variable
Bit rate                                 : 92 bps
Stream size                              : 93.6 KiB (0%)
Title                                    : Russian Subtitle
Language                                 : Russian
Default                                  : No
Forced                                   : No
Alternate group                          : 2
Encoded date                             : UTC 2013-02-24 13:01:38
Tagged date                              : UTC 2013-02-24 13:21:52
Subtitles For                            : 2,4
Forced Alternative                       : 6

Text #3
ID                                       : 8
Format                                   : Timed Text
Muxing mode                              : sbtl
Codec ID                                 : tx3g
Duration                                 : 2h 18mn
Bit rate mode                            : Variable
Bit rate                                 : 71 bps
Stream size                              : 71.4 KiB (0%)
Title                                    : English Subtitle
Language                                 : English
Default                                  : No
Forced                                   : No
Alternate group                          : 2
Encoded date                             : UTC 2013-02-24 13:01:38
Tagged date                              : UTC 2013-02-24 13:21:52

Menu #1
00:00:00.000                             : The Help
00:09:39.870                             : Bridge Club
00:17:53.781                             : Skeeter
00:26:10.986                             : The Storm
00:33:42.145                             : Courage
00:46:05.679                             : Minny's New Job
00:52:59.092                             : Not Good Enough
01:04:12.723                             : Separate, But Equal
01:19:51.119                             : More Stories
01:31:14.051                             : Terrible Awful
01:40:54.673                             : Benefit Dinner
01:48:10.525                             : One More Story
01:55:14.115                             : The Book
02:03:43.707                             : Thank You
02:12:47.000                             : The Truth
02:18:32.679                             : End Credits

Menu #2
ID                                       : 9
Codec ID                                 : text
Duration                                 : 2h 26mn
Title                                    : Chapter Titles
Language                                 : English
Encoded date                             : UTC 2018-05-06 09:43:38
Tagged date                              : UTC 2018-05-06 09:43:38
Menu For                                 : 2,1
00:00:00.000                             : The Help
00:09:39.870                             : Bridge Club
00:17:53.781                             : Skeeter
00:26:10.986                             : The Storm
00:33:42.145                             : Courage
00:46:05.679                             : Minny's New Job
00:52:59.092                             : Not Good Enough
01:04:12.723                             : Separate, But Equal
01:19:51.119                             : More Stories
01:31:14.051                             : Terrible Awful
01:40:54.673                             : Benefit Dinner
01:48:10.525                             : One More Story
01:55:14.115                             : The Book
02:03:43.707                             : Thank You
02:12:47.000                             : The Truth
02:18:32.679                             : End Credits
Bit rate mode                            : VBR
General
Complete name                            : The Help (1080p HD).m4v
Format                                   : MPEG-4
Codec ID                                 : M4V  (M4V /M4A /mp42/isom)
File size                                : 15.6 GiB
Duration                                 : 2h 26mn
Overall bit rate mode                    : Variable
Overall bit rate                         : 15.2 Mbps
Movie name                               : The Help
Performer                                : Tate Taylor
Director                                 : Тейт Тейлор
Actor                                    : Эмма Стоун / Виола Дэвис / Брайс Даллас Ховард / Октавия Спенсер / Джессика Честейн / Ана О’Райли / Эллисон Дженни / Сисси Спейсек / Сисели Тайсон / Мэри Стинберген
Screenplay by                            : Тейт Тейлор / Кэтрин Стокетт
Producer                                 : Майкл Барнатан / Крис Коламбус / Брунсон Грин
Production studio                        : Touchstone Pictures
Genre                                    : Drama
ContentType                              : Short Film
Description                              : Американский Юг, на дворе 1960-е годы. Скитер только-только закончила университет и возвращается домой, в сонный городок Джексон, где никогда ничего не происходит. Она мечтает стать писательницей, вырваться в большой мир...
Recorded date                            : UTC 2011-08-09 08:00:00
Encoded date                             : UTC 2013-02-24 09:38:01
Tagged date                              : UTC 2018-05-06 09:41:40
Copyright                                : © 2011 DREAMWORKS II DISTRIBUTION CO., LLC
Cover                                    : Yes
Rating                                   : None
Title/Sort                               : Help
LongDescription                          : Американский Юг, на дворе 1960-е годы. Скитер только-только закончила университет и возвращается домой, в сонный городок Джексон, где никогда ничего не происходит. Она мечтает стать писательницей, вырваться в большой мир. Но для приличной девушки с Юга не пристало тешиться столь глупыми иллюзиями, приличной девушке следует выйти замуж и хлопотать по дому. / Мудрая Эйбилин на тридцать лет старше Скитер, она прислуживает в домах белых всю свою жизнь, вынянчила семнадцать детей и давно уже ничего не ждет от жизни, ибо сердце ее разбито после смерти единственного сына. / Минни - самая лучшая стряпуха во всем Джексоне, а еще она самая дерзкая служанка в городе. И острый язык не раз уже сослужил ей плохую службу. На одном месте Минни никогда подолгу не задерживается. Но с Минни лучше не связываться даже самым высокомерным белым дамочкам. Двух черных служанок и белую неопытную девушку объединяет одно - обостренное чувство справедливости и желание хоть как-то изменить порядок вещей. Смогут ли эти трое противостоять целому миру? Сумеют ли они выжить в этой борьбе?
AppleStoreCatalogID                      : 458062374
Vendor                                   : Apple:vendor_id:2011-470553
ContentRating                            : mpaa|PG-13|300|Rated PG-13 For Thematic Material.

Video #1
ID                                       : 1
Format                                   : AVC
Format/Info                              : Advanced Video Codec
Format profile                           : [email protected]
Format settings                          : CABAC / 4 Ref Frames
Format settings, CABAC                   : Yes
Format settings, ReFrames                : 4 frames
Codec ID                                 : avc1
Codec ID/Info                            : Advanced Video Coding
Duration                                 : 2h 26mn
Bit rate                                 : 14.0 Mbps
Width                                    : 1 920 pixels
Height                                   : 1 036 pixels
Display aspect ratio                     : 1.85:1
Frame rate mode                          : Variable
Frame rate                               : 23.976 (24000/1001) fps
Minimum frame rate                       : 23.810 fps
Maximum frame rate                       : 24.390 fps
Color space                              : YUV
Chroma subsampling                       : 4:2:0
Bit depth                                : 8 bits
Scan type                                : Progressive
Bits/(Pixel*Frame)                       : 0.294
Stream size                              : 14.3 GiB (92%)
Title                                    : Main Program
Writing library                          : x264 core 112
Encoding settings                        : cabac=1 / ref=4 / deblock=1:-2:-1 / analyse=0x3:0x113 / me=umh / subme=9 / psy=1 / psy_rd=1.00:0.15 / mixed_ref=1 / me_range=32 / chroma_me=1 / trellis=1 / 8x8dct=1 / cqm=0 / deadzone=21,11 / fast_pskip=1 / chroma_qp_offset=-3 / threads=12 / sliced_threads=0 / nr=0 / decimate=1 / interlaced=0 / constrained_intra=0 / bframes=8 / b_pyramid=0 / b_adapt=1 / b_bias=0 / direct=1 / weightb=0 / open_gop=0 / weightp=0 / keyint=240 / keyint_min=23 / scenecut=40 / intra_refresh=0 / rc_lookahead=40 / rc=2pass / mbtree=1 / bitrate=14000 / ratetol=1.0 / qcomp=0.60 / qpmin=3 / qpmax=51 / qpstep=4 / cplxblur=20.0 / qblur=0.5 / vbv_maxrate=25000 / vbv_bufsize=25000 / ip_ratio=1.40 / aq=1:1.05 / nal_hrd=none
Language                                 : English
Encoded date                             : UTC 2013-02-24 09:38:02
Tagged date                              : UTC 2013-02-24 09:53:08
Color range                              : Limited
Color primaries                          : BT.709
Transfer characteristics                 : BT.709
Matrix coefficients                      : BT.709
Menus                                    : 9,10

Video #2
ID                                       : 10
Format                                   : JPEG
Codec ID                                 : jpeg
Duration                                 : 2h 26mn
Bit rate mode                            : Variable
Bit rate                                 : 959 bps
Width                                    : 640 pixels
Height                                   : 345 pixels
Display aspect ratio                     : 1.85:1
Frame rate mode                          : Variable
Frame rate                               : 0.002 fps
Minimum frame rate                       : 0.001 fps
Maximum frame rate                       : 0.003 fps
Color space                              : YUV
Chroma subsampling                       : 4:2:0
Bit depth                                : 8 bits
Compression mode                         : Lossy
Bits/(Pixel*Frame)                       : 2.172
Stream size                              : 936 KiB (0%)
Title                                    : Chapter Images
Language                                 : English
Default                                  : No
Encoded date                             : UTC 2018-05-06 09:39:30
Tagged date                              : UTC 2018-05-06 09:39:30
Menu For                                 : 1
ColorSpace_ICC                           : RGB

Audio #1
ID                                       : 2
Format                                   : AAC
Format/Info                              : Advanced Audio Codec
Format profile                           : LC
Codec ID                                 : mp4a-40-2
Duration                                 : 2h 26mn
Bit rate mode                            : Variable
Bit rate                                 : 165 Kbps
Maximum bit rate                         : 264 Kbps
Channel(s)                               : 2 channels
Channel positions                        : Front: L R
Sampling rate                            : 48.0 KHz
Frame rate                               : 46.875 fps (1024 SPF)
Compression mode                         : Lossy
Stream size                              : 172 MiB (1%)
Title                                    : Russian MVO Blu-Ray Stereo
Language                                 : Russian
Default                                  : Yes
Alternate group                          : 1
Encoded date                             : UTC 2013-02-24 09:38:02
Tagged date                              : UTC 2013-02-24 09:41:24
Fallback From                            : 4
Subtitles                                : 6,7
Menus                                    : 9

Audio #2
ID                                       : 3
Format                                   : AAC
Format/Info                              : Advanced Audio Codec
Format profile                           : LC
Codec ID                                 : mp4a-40-2
Duration                                 : 2h 26mn
Bit rate mode                            : Variable
Bit rate                                 : 165 Kbps
Maximum bit rate                         : 262 Kbps
Channel(s)                               : 2 channels
Channel positions                        : Front: L R
Sampling rate                            : 48.0 KHz
Frame rate                               : 46.875 fps (1024 SPF)
Compression mode                         : Lossy
Stream size                              : 172 MiB (1%)
Title                                    : English Stereo
Language                                 : English
Default                                  : No
Alternate group                          : 1
Encoded date                             : UTC 2013-02-24 09:38:02
Tagged date                              : UTC 2013-02-24 09:57:26
Fallback From                            : 5

Audio #3
ID                                       : 4
Format                                   : AC-3
Format/Info                              : Audio Coding 3
Codec ID                                 : ac-3
Duration                                 : 2h 26mn
Bit rate mode                            : Constant
Bit rate                                 : 448 Kbps
Channel(s)                               : 6 channels
Channel positions                        : Front: L C R, Side: L R, LFE
Sampling rate                            : 48.0 KHz
Frame rate                               : 31.250 fps (1536 SPF)
Bit depth                                : 16 bits
Compression mode                         : Lossy
Stream size                              : 469 MiB (3%)
Title                                    : Russian MVO Blu-Ray DD 5.1
Language                                 : Russian
Service kind                             : Complete Main
Default                                  : Inherited From: 2
Alternate group                          : 1
Encoded date                             : UTC 2013-02-24 09:38:02
Tagged date                              : UTC 2013-02-24 10:02:52
Fallback To                              : 2
Subtitles                                : 6,7

Audio #4
ID                                       : 5
Format                                   : AC-3
Format/Info                              : Audio Coding 3
Codec ID                                 : ac-3
Duration                                 : 2h 26mn
Bit rate mode                            : Constant
Bit rate                                 : 448 Kbps
Channel(s)                               : 6 channels
Channel positions                        : Front: L C R, Side: L R, LFE
Sampling rate                            : 48.0 KHz
Frame rate                               : 31.250 fps (1536 SPF)
Bit depth                                : 16 bits
Compression mode                         : Lossy
Stream size                              : 469 MiB (3%)
Title                                    : English DD 5.1
Language                                 : English
Service kind                             : Complete Main
Default                                  : No
Alternate group                          : 1
Encoded date                             : UTC 2013-02-24 09:38:02
Tagged date                              : UTC 2013-02-24 10:07:08
Fallback To                              : 3

Text #1
ID                                       : 6
Format                                   : Timed Text
Muxing mode                              : sbtl
Codec ID                                 : tx3g
Duration                                 : 2h 11mn
Bit rate mode                            : Variable
Bit rate                                 : 0 bps
Stream size                              : 366 Bytes (0%)
Title                                    : Russian Forced Subtitle
Language                                 : Russian
Default                                  : Yes
Forced                                   : Yes
Alternate group                          : 2
Encoded date                             : UTC 2013-02-24 09:38:02
Tagged date                              : UTC 2013-02-24 10:07:08
Subtitles For                            : 2,4
Full Alternative                         : 7

Text #2
ID                                       : 7
Format                                   : Timed Text
Muxing mode                              : sbtl
Codec ID                                 : tx3g
Duration                                 : 2h 18mn
Bit rate mode                            : Variable
Bit rate                                 : 92 bps
Stream size                              : 93.6 KiB (0%)
Title                                    : Russian Subtitle
Language                                 : Russian
Default                                  : No
Forced                                   : No
Alternate group                          : 2
Encoded date                             : UTC 2013-02-24 09:38:02
Tagged date                              : UTC 2013-02-24 10:07:23
Subtitles For                            : 2,4
Forced Alternative                       : 6

Text #3
ID                                       : 8
Format                                   : Timed Text
Muxing mode                              : sbtl
Codec ID                                 : tx3g
Duration                                 : 2h 18mn
Bit rate mode                            : Variable
Bit rate                                 : 71 bps
Stream size                              : 71.4 KiB (0%)
Title                                    : English Subtitle
Language                                 : English
Default                                  : No
Forced                                   : No
Alternate group                          : 2
Encoded date                             : UTC 2013-02-24 09:38:02
Tagged date                              : UTC 2013-02-24 10:07:26

Menu #1
00:00:00.000                             : The Help
00:09:39.870                             : Bridge Club
00:17:53.781                             : Skeeter
00:26:10.986                             : The Storm
00:33:42.145                             : Courage
00:46:05.679                             : Minny's New Job
00:52:59.092                             : Not Good Enough
01:04:12.723                             : Separate, But Equal
01:19:51.119                             : More Stories
01:31:14.051                             : Terrible Awful
01:40:54.673                             : Benefit Dinner
01:48:10.525                             : One More Story
01:55:14.115                             : The Book
02:03:43.707                             : Thank You
02:12:47.000                             : The Truth
02:18:32.679                             : End Credits

Menu #2
ID                                       : 9
Codec ID                                 : text
Duration                                 : 2h 26mn
Title                                    : Chapter Titles
Language                                 : English
Encoded date                             : UTC 2018-05-06 09:39:20
Tagged date                              : UTC 2018-05-06 09:39:20
Menu For                                 : 2,1
00:00:00.000                             : The Help
00:09:39.870                             : Bridge Club
00:17:53.781                             : Skeeter
00:26:10.986                             : The Storm
00:33:42.145                             : Courage
00:46:05.679                             : Minny's New Job
00:52:59.092                             : Not Good Enough
01:04:12.723                             : Separate, But Equal
01:19:51.119                             : More Stories
01:31:14.051                             : Terrible Awful
01:40:54.673                             : Benefit Dinner
01:48:10.525                             : One More Story
01:55:14.115                             : The Book
02:03:43.707                             : Thank You
02:12:47.000                             : The Truth
02:18:32.679                             : End Credits
Bit rate mode                            : VBR
x264 [info]: frame I:1944  Avg QP:16.35  size: 53372  PSNR Mean Y:46.43 U:47.61 V:48.47 Avg:46.88 Global:46.48
x264 [info]: frame P:208445 Avg QP:19.36  size:  7921  PSNR Mean Y:43.97 U:46.08 V:46.74 Avg:44.60 Global:44.04
x264 [info]: mb I  I16..4: 22.3%  0.0% 77.7%
x264 [info]: mb P  I16..4:  1.6%  0.0%  1.7%  P16..4: 51.4% 22.8%  0.4%  0.0%  0.8%    skip:21.2%
x264 [info]: coded y,uvDC,uvAC intra: 63.1% 66.7% 41.4% inter: 26.8% 16.6% 3.4%
x264 [info]: i16 v,h,dc,p: 49% 12% 17% 22%
x264 [info]: i4 v,h,dc,ddl,ddr,vr,hd,vl,hu: 31% 12% 17%  6%  7%  9%  5%  8%  5%
x264 [info]: i8c dc,h,v,p: 46% 13% 33%  8%
x264 [info]: ref P L0: 69.0% 31.0%
x264 [info]: SSIM Mean Y:0.9833325 (17.781db)
x264 [info]: PSNR Mean Y:43.989 U:46.096 V:46.759 Avg:44.623 Global:44.057 kb/s:1599.96
x264 [info]: frame I:1893  Avg QP:17.40  size:153004  PSNR Mean Y:45.53 U:47.62 V:49.36 Avg:46.28 Global:45.84
x264 [info]: frame P:74308 Avg QP:18.80  size: 46828  PSNR Mean Y:43.52 U:46.02 V:48.06 Avg:44.37 Global:43.79
x264 [info]: frame B:134188 Avg QP:21.22  size: 10310  PSNR Mean Y:42.92 U:46.15 V:48.51 Avg:43.90 Global:43.28
x264 [info]: consecutive B-frames:  4.1% 27.5% 21.7% 27.1% 16.1%  2.6%  0.2%  0.1%  0.6%
x264 [info]: mb I  I16..4:  6.8% 59.0% 34.2%
x264 [info]: mb P  I16..4:  0.8%  4.1%  2.0%  P16..4: 42.9% 29.2% 13.3%  0.0%  0.0%    skip: 7.8%
x264 [info]: mb B  I16..4:  0.1%  0.4%  0.2%  B16..8: 44.9%  8.5%  1.5%  direct: 3.5%  skip:40.9%  L0:39.9% L1:51.7% BI: 8.5%
x264 [info]: 8x8 transform intra:59.3% inter:44.1%
x264 [info]: coded y,uvDC,uvAC intra: 84.1% 86.6% 72.3% inter: 23.4% 19.2% 5.7%
x264 [info]: i16 v,h,dc,p: 55% 13%  8% 24%
x264 [info]: i8 v,h,dc,ddl,ddr,vr,hd,vl,hu: 14%  7%  7% 11% 14% 15% 13% 12%  9%
x264 [info]: i4 v,h,dc,ddl,ddr,vr,hd,vl,hu: 23%  6%  4% 10% 14% 14% 11% 10%  8%
x264 [info]: i8c dc,h,v,p: 53% 15% 21% 11%
x264 [info]: ref P L0: 71.1% 16.9% 12.0%
x264 [info]: ref B L0: 78.4% 21.6%
x264 [info]: SSIM Mean Y:0.9727491 (15.646db)
x264 [info]: PSNR Mean Y:43.157 U:46.116 V:48.357 Avg:44.086 Global:43.471 kb/s:4697.73
x264 [info]: frame I:1984  Avg QP:18.78  size:271311  PSNR Mean Y:45.66 U:47.68 V:50.22 Avg:46.45 Global:46.07
x264 [info]: frame P:91194 Avg QP:19.52  size:114053  PSNR Mean Y:43.76 U:46.26 V:49.10 Avg:44.66 Global:44.24
x264 [info]: frame B:117211 Avg QP:21.76  size: 37622  PSNR Mean Y:43.01 U:46.06 V:49.32 Avg:44.00 Global:43.40
x264 [info]: consecutive B-frames:  9.6% 40.6% 23.6% 16.7%  7.2%  1.4%  0.2%  0.0%  0.6%
x264 [info]: mb I  I16..4:  7.2% 85.3%  7.6%
x264 [info]: mb P  I16..4:  1.2%  9.2%  0.5%  P16..4: 38.5% 27.7% 16.9%  0.0%  0.0%    skip: 5.9%
x264 [info]: mb B  I16..4:  0.2%  1.2%  0.0%  B16..8: 40.0%  8.6%  2.5%  direct: 5.9%  skip:41.5%  L0:37.1% L1:40.3% BI:22.5%
x264 [info]: 8x8 transform intra:84.3% inter:65.0%
x264 [info]: coded y,uvDC,uvAC intra: 85.2% 87.3% 74.3% inter: 39.3% 42.0% 17.5%
x264 [info]: i16 v,h,dc,p: 53% 14% 12% 22%
x264 [info]: i8 v,h,dc,ddl,ddr,vr,hd,vl,hu:  9%  6%  8% 11% 15% 15% 13% 12% 11%
x264 [info]: i4 v,h,dc,ddl,ddr,vr,hd,vl,hu: 10%  6%  5% 10% 15% 16% 13% 13% 12%
x264 [info]: i8c dc,h,v,p: 61% 12% 14% 13%
x264 [info]: ref P L0: 65.6% 17.0% 11.2%  6.2%
x264 [info]: ref B L0: 78.0% 13.2%  8.8%
x264 [info]: SSIM Mean Y:0.9705859 (15.314db)
x264 [info]: PSNR Mean Y:43.359 U:46.164 V:49.229 Avg:44.307 Global:43.763 kb/s:13993.39

Релиз подготовлен для просмотра на Apple TV, iPad, iPhone, iPod Touch.
Для просмотра данного релиза на компьютере с ОС Windows рекомендуется использовать VLC media player

Трекер:  [ 02-Июн-2018 23:06 ]

  

Скачать .torrent

Размер .torrent файла 236 KB


Размер: 23.54 GB
Хэш (hash) релиза: 35d7a3162be25182c7b45607f17b36e4f31897b7

Торренты, похожие на Прислуга The Help скачать торрент

Форум Название Автор Размер S L Добавлен
Видео (iPhone/iPod Touch/iPad) ·· Прислуга / The Help (Тейт Тейлор / Tate Taylor) [2011, драма, BDRip, HD (1080p, 720p), SD] L 2526762264623.53 GB 0 0 1363267813

16:30

14-Мар-13

Видео (iPhone/iPod Touch/iPad) ·· [iPad] Прислуга / The Help (Тейт Тейлор / Tate Taylor) [2011, США, Индия, ОАЭ, Драма, BDRip, 576p] MVO, Original + Sub (rus, eng) L 30478885992.84 GB 0 0 1363267627

16:27

14-Мар-13

Видео (Фильмы/Клипы) ·· [VIDEO] Прислуга / The Help (Тейт Тейлор / Tate Taylor) [2011, драма, BDRip] [3GP, 176x] Galfimbul 304564245290 MB 0 0 1336588200

21:30

9-Май-12

Еще никто не оставлял запись к записи скачать торрент Прислуга The Help . Будь первым!

!Обратная связь