Bell's Village 9 | Read More.. | Eps13 Little Women: LA - Season 7 (2018)

Скачать через торрент Скиф Фильм бесплатно в хорошем качестве torrent

Скачивайте на UnionPeer.org фильмы через торрент без регистрации. Новинки кино в хорошем качестве через торрент. На UnionPeer.org можно скачать через торрент фильмы 2014 и 2015 годов. Самые новые фильмы.

Скачать торрент Скиф бесплатно через .torrent фильм мультфильм сериал

Статистика раздачи
Размер:  747 MB   |    Зарегистрирован:  19 дней   |    .torrent скачан:  57 раз   |   
Раздают:  1  
   
загрузка...
 
Автор Сообщение

Galfimbul

avatar Galfimbul


Скиф

Жанр: драма, история, фэнтези, боевик, приключения
Год выпуска: 2018
Продолжительность: 01:44:32

Режиссёр: Рустам Мосафир

В ролях: Алексей Фаддеев
Виталий Кравченко
Александр Кузнецов
Александр Пацевич
Юрий Цурило
Андрей Пермяков
Василиса Измайлова
Алексей Овсянников
Фёдор Рощин
Рустам Мосафир

Описание: Действие фильма происходит во время смены цивилизаций. В Евразии начинается новая эра. Ушли в небытие гордые воины — скифы, их вымирающие потомки превратились в безжалостных наемных убийц, «волков Ареса». Ратнику Лютобору предстоит тяжелое испытание. Втянутый в междоусобные интриги он отправляется в опасный путь ради спасения семьи, а его проводником становится пленный скиф Куница. Они — враги и молятся разным богам, но вынуждены идти вместе. Через дикий степной мир к пристанищу последних скифов, где их ждет почти неминуемая смерть…

Доп. информация: http://www.kinopoisk.ru/film/skif-2018-972741/

Сэмпл: http://sendfile.su/1423250

Качество видео: HDRip найден в сети
Формат видео: AVI

Видео: 688x288 (2.39:1), 23.976 fps, XviD build 73 ~828 kbps avg, 0.17 bit/pixel
Аудио: 48 kHz, MPEG Layer 3, 2 ch, ~160.00 kbps avg
GeneralComplete name : C:\Skif.2017.XviD.BDRip.GeneralFilm.aviFormat : AVIFormat/Info : Audio Video InterleaveFile size : 747 MiBDuration : 1h 44mnOverall bit rate : 998 KbpsWriting application : VirtualDubMod 1.5.10.3 | www.virtualdub-fr.org || (build 2550/release)Writing library : VirtualDubMod build 2550/release

VideoID : 0Format : MPEG-4 VisualFormat profile : Advanced [email protected] settings, BVOP : 1Format settings, QPel : NoFormat settings, GMC : No warppointsFormat settings, Matrix : CustomCodec ID : XVIDCodec ID/Hint : XviDDuration : 1h 44mnBit rate : 829 KbpsWidth : 688 pixelsHeight : 288 pixelsDisplay aspect ratio : 2.35:1Frame rate : 23.976 fpsColor space : YUVChroma subsampling : 4:2:0Bit depth : 8 bitsScan type : ProgressiveCompression mode : LossyBits/(Pixel*Frame) : 0.175Stream size : 620 MiB (83%)Writing library : XviD 73

AudioID : 1Format : MPEG AudioFormat version : Version 1Format profile : Layer 3Mode : Joint stereoMode extension : MS StereoCodec ID : 55Codec ID/Hint : MP3Duration : 1h 44mnBit rate mode : ConstantBit rate : 160 KbpsChannel(s) : 2 channelsSampling rate : 48.0 KHzCompression mode : LossyStream size : 120 MiB (16%)Alignment : Aligned on interleavesInterleave, duration : 42 ms (1.00 video frame)Interleave, preload duration : 504 msWriting library : LAME3.97


Трекер:  [ 02-Июн-2018 21:24 ]

  

Скачать .torrent

Размер .torrent файла 15 KB


Размер: 747 MB
Хэш (hash) релиза: e3b6750cd015f27b306781600fefcc572b5d0add
Подписка на обновления:

Торренты, похожие на Скиф скачать торрент

Форум Название Автор Размер S L Добавлен
Российские фильмы 2016-2018 (Новинки русского кино) ·%· Скиф (2018) HDRip-AVC | Лицензия Galfimbul 780550831744 MB 0 0 1529563220

09:40

21-Июн-18

Российские фильмы до 2016 ·· Скиф (Рустам Мосафир) [2017, Россия, фэнтези, боевик, приключения, драма, Blu-ray disc 1080p] [GER Transfer] Original (Rus) + Sub (Deu) Galfimbul 3694103361834.4 GB 0 0 1527919286

09:01

2-Июн-18

Российские фильмы 2016-2018 (Новинки русского кино) ·· Скиф (Рустам Мосафир) [2018 г., драма, история, фэнтези, боевик, приключения, BDRip 1080p] Лицензия Galfimbul 1236046270711.51 GB 0 0 1527784819

19:40

31-Май-18

Российские фильмы 2016-2018 (Новинки русского кино) ·· Скиф (Рустам Мосафир) [2018 г., драма, история, фэнтези, боевик, приключения, BDRip] Лицензия Galfimbul 781377646745 MB 0 0 1527768018

15:00

31-Май-18

Российские фильмы 2016-2018 (Новинки русского кино) ·· Скиф (Рустам Мосафир) [2018 г., драма, история, фэнтези, боевик, приключения, BDRip 720p] Лицензия Galfimbul 51095492234.76 GB 0 0 1527765668

14:21

31-Май-18

Российские фильмы 2016-2018 (Новинки русского кино) ·· Скиф (Рустам Мосафир) [2018 г., драма, история, фэнтези, боевик, приключения, BDRip] | Лицензия Galfimbul 22047498242.05 GB 0 0 1527739126

06:58

31-Май-18

Российские фильмы 2016-2018 (Новинки русского кино) ·· Скиф (Рустам Мосафир) [2018 г., драма, история, фэнтези, боевик, приключения, BDRip] | Лицензия Galfimbul 14679470081.37 GB 0 0 1527739123

06:58

31-Май-18

Российские фильмы 2016-2018 (Новинки русского кино) ·· Скиф (Рустам Мосафир) [2018 г., драма, история, фэнтези, боевик, приключения, Blu-Ray GER 1080p] Лицензия Galfimbul 3694103361834.4 GB 0 0 1527731409

04:50

31-Май-18

Российские фильмы 2016-2018 (Новинки русского кино) ·· Скиф (Рустам Мосафир) [2018 г., драма, история, фэнтези, боевик, приключения, BDRemux 1080p] Лицензия Galfimbul 3268359938930.44 GB 0 0 1527718218

01:10

31-Май-18

Российские фильмы 2016-2018 (Новинки русского кино) ·· Скиф (Рустам Мосафир) [2017, Россия, драма, история, фэнтези, боевик, приключения, WEB-DLRip] iTunes Galfimbul 781721600746 MB 0 0 1519092046

05:00

20-Фев-18

Российские фильмы 2016-2018 (Новинки русского кино) ·· Скиф (Рустам Мосафир) [2017, Россия, драма, история, фэнтези, боевик, приключения, WEB-DLRip] iTunes Galfimbul 15679447041.46 GB 0 0 1519086030

03:20

20-Фев-18

Российские фильмы 2016-2018 (Новинки русского кино) ·· Скиф (Рустам Мосафир) [2017, Россия, драма, история, фэнтези, боевик, приключения, WEB-DL 720p] iTunes Galfimbul 32844465553.06 GB 0 0 1519084813

03:00

20-Фев-18

Российские фильмы 2016-2018 (Новинки русского кино) ·· Скиф (Рустам Мосафир) [2017, Россия, драма, история, фэнтези, боевик, приключения, WEB-DL 1080p] iTunes Galfimbul 37041831243.45 GB 0 0 1519083629

02:40

20-Фев-18

Документальные фильмы и телепередачи ·· Да, скифы мы! [Культура 06.10.2014] (Алексей Артемьев) [2014 г., Документальный, SATRip] Galfimbul 589649920562 MB 0 0 1452071789

12:16

6-Янв-16

Спорт ·· Гандбол / Мужчины / Кубок России - 2015 / Финал 4-х / 2-й полуфинал / Чеховские Медведи (Чехов) - Скиф (Краснодар) / НТВ+ HD [16.12.2015, Гандбол, HDRip, XviD, RU] Galfimbul 12979200001.21 GB 0 0 1450359290

16:34

17-Дек-15

Спорт ·· Гандбол / Мужчины / Кубок России - 2015 / Финал 4-х / 2-й полуфинал / Чеховские Медведи (Чехов) - Скиф (Краснодар) / НТВ+ HD [16.12.2015, Гандбол, HDTVRip/720p/50fps, MKV/H.264, RU] Galfimbul 29025355812.7 GB 0 0 1450344727

12:32

17-Дек-15

Документальные фильмы и телепередачи ·· Да, скифы мы! (Алексей Артемьев) [2014, документальный, SATRip-AVC] Galfimbul 259458244247 MB 0 0 1438248806

12:33

30-Июл-15

Еще никто не оставлял запись к записи скачать торрент Скиф . Будь первым!

!Обратная связь