Destination: Pluto Beyond the Flyby | saison 5, épisode 22 | AP Bio HDTV

Скачать через торрент Хасан Минаж - Вернулся домой на коне Hasan Minhaj - Homecoming King Фильм бесплатно в хорошем качестве torrent

Скачивайте на UnionPeer.org фильмы через торрент без регистрации. Новинки кино в хорошем качестве через торрент. На UnionPeer.org можно скачать через торрент фильмы 2014 и 2015 годов. Самые новые фильмы.

Скачать торрент Хасан Минаж - Вернулся домой на коне Hasan Minhaj - Homecoming King бесплатно через .torrent фильм мультфильм сериал

Статистика раздачи
Размер:  3.33 GB   |    Зарегистрирован:  22 дня   |    .torrent скачан:  23 раза   |   
Раздают:  1  
   
загрузка...
 
Автор Сообщение

Galfimbul

avatar Galfimbul


Хасан Минаж - Вернулся домой на коне / Hasan Minhaj - Homecoming King

Дата/Год выпуска: 23.05.2017
Страна: США
Жанр: стендап, монолог
Продолжительность: 01:12:00
Перевод: Субтитры (hvblack) + английские субтитры

Режиссер: Хасан Минаж

Телеканал: Нетфликс
Описание: Комик Хасан Минаж из "Ежедневного Шоу" делится личными историями про расизм, родителей-иммигрантов, ужасы выпускного и многое другое.

Сэмпл

качество: WEBRip 1080p
формат: MKV
Видео: AVC, 1920x1080 (16:9), 23,976 кадра/сек, 6190 Кбит/сек, 0.125 бит/пиксель
Аудио: AC-3, 48 КГц, 6 каналов, 384 Кбит/сек
ОбщееУникальный идентификатор : 199648988256289214488526356807954159099 (0x9632FF19A3158A829BB46893549755FB)Полное имя : ...\Hasan.Minhaj.Homecoming.King.2017.1080p.WEBRip.DD5.1.x264-monkee\Hasan.Minhaj.Homecoming.King.2017.1080p.WEBRip.DD5.1.x264-monkee.mkvФормат : MatroskaВерсия формата : Version 4 / Version 2Размер файла : 3,33 ГбайтПродолжительность : 1 ч. 12 м.Режим общего битрейта : ПеременныйОбщий поток : 6558 Кбит/секДата кодирования : UTC 2017-07-11 17:09:58Программа кодирования : mkvmerge v13.0.0 ('The Juggler') 64bitБиблиотека кодирования : libebml v1.3.4 + libmatroska v1.4.5

ВидеоИдентификатор : 1Формат : AVCФормат/Информация : Advanced Video CodecПрофиль формата : [email protected]Параметр CABAC формата : ДаПараметр ReFrames формата : 3 кадраИдентификатор кодека : V_MPEG4/ISO/AVCПродолжительность : 1 ч. 12 м.Вид битрейта : ПеременныйБитрейт : 6190 Кбит/секМаксимальный битрейт : 9285 Кбит/секШирина : 1920 пикселейВысота : 1080 пикселейСоотношение сторон : 16:9Режим частоты кадров : ПостоянныйЧастота кадров : 23,976 (24000/1001) кадра/секЦветовое пространство : YUVСубдискретизация насыщенности : 4:2:0Битовая глубина : 8 битТип развёртки : ПрогрессивнаяБит/(Пиксели*Кадры) : 0.125Размер потока : 3,13 Гбайт (94%)Библиотека кодирования : x264 core 118Настройки программы : cabac=1 / ref=3 / deblock=1:0:0 / analyse=0x1:0x111 / me=umh / subme=10 / psy=1 / psy_rd=1.00:0.00 / mixed_ref=1 / me_range=24 / chroma_me=1 / trellis=2 / 8x8dct=0 / cqm=0 / deadzone=21,11 / fast_pskip=1 / chroma_qp_offset=-2 / threads=8 / sliced_threads=0 / nr=0 / decimate=1 / interlaced=0 / bluray_compat=0 / constrained_intra=0 / bframes=2 / b_pyramid=0 / b_adapt=2 / b_bias=0 / direct=3 / weightb=1 / open_gop=0 / weightp=2 / keyint=48 / keyint_min=25 / scenecut=0 / intra_refresh=0 / rc_lookahead=0 / rc=2pass / mbtree=1 / bitrate=6190 / ratetol=1.0 / qcomp=0.50 / qpmin=6 / qpmax=51 / qpstep=4 / cplxblur=20.0 / qblur=0.5 / vbv_maxrate=9285 / vbv_bufsize=12380 / nal_hrd=vbr / ip_ratio=1.40 / aq=1:1.00Default : ДаForced : Нет

АудиоИдентификатор : 2Формат : AC-3Формат/Информация : Audio Coding 3Расширение режима : CM (complete main)Параметр Endianness формата : BigИдентификатор кодека : A_AC3Продолжительность : 1 ч. 12 м.Вид битрейта : ПостоянныйБитрейт : 384 Кбит/секКаналы : 6 каналовРасположение каналов : Front: L C R, Side: L R, LFEЧастота : 48,0 КГцЧастота кадров : 31,250 кадров/сек (1536 spf)Битовая глубина : 16 битМетод сжатия : С потерямиРазмер потока : 200 Мбайт (6%)Язык : EnglishDefault : ДаForced : Нет

Текст #1Идентификатор : 3Формат : UTF-8Идентификатор кодека : S_TEXT/UTF8Идентификатор кодека/Информация : UTF-8 Plain TextПродолжительность : 1 ч. 11 м.Битрейт : 103 бит/секCount of elements : 1416Размер потока : 54,2 Кбайт (0%)Язык : EnglishDefault : НетForced : Нет

Текст #2Идентификатор : 4Формат : UTF-8Идентификатор кодека : S_TEXT/UTF8Идентификатор кодека/Информация : UTF-8 Plain TextПродолжительность : 1 ч. 11 м.Битрейт : 104 бит/секCount of elements : 1324Размер потока : 54,8 Кбайт (0%)Язык : SpanishDefault : НетForced : Нет

Текст #3Идентификатор : 5Формат : UTF-8Идентификатор кодека : S_TEXT/UTF8Идентификатор кодека/Информация : UTF-8 Plain TextПродолжительность : 1 ч. 11 м.Битрейт : 107 бит/секCount of elements : 1324Размер потока : 56,3 Кбайт (0%)Язык : FrenchDefault : НетForced : Нет

Текст #4Идентификатор : 6Формат : UTF-8Идентификатор кодека : S_TEXT/UTF8Идентификатор кодека/Информация : UTF-8 Plain TextПродолжительность : 1 ч. 11 м.Битрейт : 108 бит/секCount of elements : 1325Размер потока : 56,8 Кбайт (0%)Заголовок : SimplifiedЯзык : ChineseDefault : НетForced : Нет

Текст #5Идентификатор : 7Формат : UTF-8Идентификатор кодека : S_TEXT/UTF8Идентификатор кодека/Информация : UTF-8 Plain TextПродолжительность : 1 ч. 11 м.Битрейт : 109 бит/секCount of elements : 1325Размер потока : 57,6 Кбайт (0%)Заголовок : TraditionalЯзык : ChineseDefault : НетForced : Нет


Трекер:  [ 02-Июн-2018 19:42 ]

  

Скачать .torrent

Размер .torrent файла 17 KB


Размер: 3.33 GB
Хэш (hash) релиза: c503b065c6cd13ed5184a46a0d4ebf17f17f4d0f
Подписка на обновления:

Еще никто не оставлял запись к записи скачать торрент Хасан Минаж - Вернулся домой на коне Hasan Minhaj - Homecoming King . Будь первым!

!Обратная связь