Movie Slate | Read More.. | Girls Gone Pink 2 (2018) HD

Скачать через торрент [VIDEO] Оно It бесплатно русская версия torrent активатор

Статистика раздачи
Размер:  3.15 GB   |    Зарегистрирован:  22 дня   |    .torrent скачан:  22 раза   |   
Раздают:  1  
   
загрузка...
 
Автор Сообщение

Galfimbul

avatar Galfimbul


Оно / It


Год выпуска: 2017
Страна: США, Канада
Жанр: ужасы, триллер
Продолжительность: 02:14:42
Перевод №1: русский Профессиональный (полное дублирование) Blu-Ray EUR
Перевод №2: украинский Профессиональный (полное дублирование)
Перевод №3: русский Любительский (многоголосый, закадровый) Paradox&Omskbird
Перевод №4: русский Одноголосый (закадровый) М. Чадов
Оригинальная дорожка: Есть
Субтитры: русские (форсированные, полные, (полные Perevodman)), украинские (форсированные), английские (полные, SDH)
Режиссер: Андрес Мускетти / Andrés Muschietti
В ролях: Джейден Либерер, Джереми Рэй Тейлор, Софиа Лиллис, Финн Вулфард, Чоузен Джейкобс, Джек Дилан Грейзер, Уайатт Олефф, Билл Скарсгард, Николас Хэмилтон, Джейк Сим и другие .
Описание: Когда в городке Дерри, штат Мэн, начинают пропадать дети, несколько ребят сталкиваются со своими величайшими страхами и вынуждены помериться силами со злобным клоуном Пеннивайзом, чьи проявления жестокости и список жертв уходят в глубь веков .
Релиз группы

Качество: BDRip / рип с Blu-ray disc 1080p [EUR]
Формат: MP4
Видео кодек: H.264
Аудио кодек: AAC
Видео: 1280x532 AR:2.41 2700 kbps 23.976 fps
Аудио №1: [Russian] 2ch 48 kHz 128 kbps - [Dub] Профессиональный (полное дублирование) Blu-Ray EUR
Аудио №2: [Ukrainian] 2ch 48 kHz 128 kbps - [Dub] Профессиональный (полное дублирование)
Аудио №3: [Russian] 2ch 48 kHz 128 kbps - [MVO] Любительский (многоголосый, закадровый) Paradox&Omskbird
Аудио №4: [Russian] 2ch 48 kHz 128 kbps - [VO] Одноголосый (закадровый) М. Чадов
Аудио №5: [English] 2ch 48 kHz 128 kbps - Original
avs [info]: 1280x532p 1:1 @ 24000/1001 fps (cfr)
x264 [info]: using SAR=1/1
x264 [info]: using cpu capabilities: MMX2 SSE2Fast SSSE3 SSE4.2 AVX FMA3 BMI2 AVX2
x264 [info]: profile High, level 4.1

x264 [info]: frame I:1835 Avg QP:15.21 size:113286
x264 [info]: frame P:44169 Avg QP:18.59 size: 29717
x264 [info]: frame B:147780 Avg QP:20.15 size: 8137
x264 [info]: consecutive B-frames: 3.2% 3.8% 9.7% 20.3% 17.4% 29.2% 7.4% 2.3% 2.2% 1.2% 2.0% 1.3%
x264 [info]: mb I I16..4: 9.5% 71.3% 19.2%
x264 [info]: mb P I16..4: 0.7% 8.6% 1.6% P16..4: 32.8% 37.7% 12.7% 0.0% 0.0% skip: 6.0%
x264 [info]: mb B I16..4: 0.1% 0.9% 0.2% B16..8: 34.8% 19.4% 2.7% direct: 4.0% skip:38.1% L0:43.8% L1:45.1% BI:11.1%
x264 [info]: 8x8 transform intra:76.8% inter:61.1%
x264 [info]: direct mvs spatial:98.1% temporal:1.9%
x264 [info]: coded y,uvDC,uvAC intra: 87.2% 88.1% 68.2% inter: 19.5% 19.9% 10.2%
x264 [info]: i16 v,h,dc,p: 22% 10% 15% 53%
x264 [info]: i8 v,h,dc,ddl,ddr,vr,hd,vl,hu: 13% 8% 7% 9% 13% 13% 13% 12% 13%
x264 [info]: i4 v,h,dc,ddl,ddr,vr,hd,vl,hu: 32% 7% 5% 7% 11% 11% 10% 8% 9%
x264 [info]: i8c dc,h,v,p: 42% 23% 19% 17%
x264 [info]: Weighted P-Frames: Y:9.0% UV:5.5%
x264 [info]: ref P L0: 49.5% 10.3% 17.6% 6.4% 5.4% 3.5% 3.6% 1.7% 1.9% 0.2% 0.0%
x264 [info]: ref B L0: 71.7% 12.4% 6.4% 3.7% 2.3% 1.9% 1.3% 0.4%
x264 [info]: ref B L1: 94.1% 5.9%
x264 [info]: kb/s:2695.10

encoded 193784 frames, 9.74 fps, 2695.11 kb/s
ОбщееПолное имя : D:\Torrents\It.2017.BDRip.x264.1280x.rip by Frost O.S.mp4Формат : MPEG-4Профиль формата : Base MediaИдентификатор кодека : isom (isom)Размер файла : 3,15 ГбайтПродолжительность : 2 ч. 14 м.Режим общего битрейта : ПеременныйОбщий поток : 3346 Кбит/секДата кодирования : UTC 2018-06-01 06:23:09Дата пометки : UTC 2018-06-01 06:23:09Программа кодирования : My MP4Box GUI 0.6.0.6

ВидеоИдентификатор : 1Формат : AVCФормат/Информация : Advanced Video CodecПрофиль формата : [email protected]Настройки формата : CABAC / 9 Ref FramesПараметр CABAC формата : ДаПараметр RefFrames формата : 9 кадровИдентификатор кодека : avc1Идентификатор кодека/Информация : Advanced Video CodingПродолжительность : 2 ч. 14 м.Битрейт : 2700 Кбит/секМаксимальный битрейт : 11,4 Мбит/секШирина : 1280 пикселейВысота : 532 пикселяСоотношение сторон : 2,40:1Режим частоты кадров : ПостоянныйЧастота кадров : 23,976 (24000/1001) кадра/секЦветовое пространство : YUVСубдискретизация насыщенности : 4:2:0Битовая глубина : 8 битТип развёртки : ПрогрессивнаяБит/(Пиксели*Кадры) : 0.165Размер потока : 2,54 Гбайт (81%)Заголовок : It.2017.BDRip.x264.1280x.rip by Frost O.SБиблиотека кодирования : x264 core 152 r2851 ba24899Настройки программы : cabac=1 / ref=9 / deblock=1:-2:-2 / analyse=0x3:0x113 / me=umh / subme=11 / psy=1 / psy_rd=1.00:0.10 / mixed_ref=1 / me_range=32 / chroma_me=1 / trellis=2 / 8x8dct=1 / cqm=0 / deadzone=21,11 / fast_pskip=0 / chroma_qp_offset=-3 / threads=6 / lookahead_threads=1 / sliced_threads=0 / nr=0 / decimate=0 / interlaced=0 / bluray_compat=0 / constrained_intra=0 / bframes=11 / b_pyramid=2 / b_adapt=2 / b_bias=0 / direct=3 / weightb=1 / open_gop=0 / weightp=2 / keyint=250 / keyint_min=23 / scenecut=40 / intra_refresh=0 / rc=2pass / mbtree=0 / bitrate=2700 / ratetol=1.0 / qcomp=0.70 / qpmin=0 / qpmax=69 / qpstep=4 / cplxblur=20.0 / qblur=0.5 / ip_ratio=1.40 / pb_ratio=1.30 / aq=3:0.80Дата кодирования : UTC 2018-05-28 15:23:28Дата пометки : UTC 2018-06-01 06:23:46Цветовой диапазон : LimitedОсновные цвета : BT.709Характеристики трансфера : BT.709Коэффициенты матрицы : BT.709

Аудио #1Идентификатор : 2Формат : AACФормат/Информация : Advanced Audio CodecПрофиль формата : LCИдентификатор кодека : mp4a-40-2Продолжительность : 2 ч. 14 м.Вид битрейта : ПеременныйБитрейт : 128 Кбит/секМаксимальный битрейт : 138 Кбит/секКаналы : 2 каналаРасположение каналов : Front: L RЧастота : 48,0 КГцЧастота кадров : 46,875 кадров/сек (1024 SPF)Метод сжатия : С потерямиРазмер потока : 123 Мбайт (4%)Заголовок : Russian / Dub, Blu-Ray EURДата кодирования : UTC 2018-06-01 06:23:26Дата пометки : UTC 2018-06-01 06:23:46

Аудио #2Идентификатор : 3Формат : AACФормат/Информация : Advanced Audio CodecПрофиль формата : LCИдентификатор кодека : mp4a-40-2Продолжительность : 2 ч. 14 м.Вид битрейта : ПеременныйБитрейт : 128 Кбит/секМаксимальный битрейт : 135 Кбит/секКаналы : 2 каналаРасположение каналов : Front: L RЧастота : 48,0 КГцЧастота кадров : 46,875 кадров/сек (1024 SPF)Метод сжатия : С потерямиРазмер потока : 123 Мбайт (4%)Заголовок : Ukrainian / DubДата кодирования : UTC 2018-06-01 06:23:32Дата пометки : UTC 2018-06-01 06:23:46

Аудио #3Идентификатор : 4Формат : AACФормат/Информация : Advanced Audio CodecПрофиль формата : LCИдентификатор кодека : mp4a-40-2Продолжительность : 2 ч. 14 м.Вид битрейта : ПеременныйБитрейт : 128 Кбит/секМаксимальный битрейт : 137 Кбит/секКаналы : 2 каналаРасположение каналов : Front: L RЧастота : 48,0 КГцЧастота кадров : 46,875 кадров/сек (1024 SPF)Метод сжатия : С потерямиРазмер потока : 123 Мбайт (4%)Заголовок : Russian / MVO, Paradox&OmskbirdДата кодирования : UTC 2018-06-01 06:23:38Дата пометки : UTC 2018-06-01 06:23:46

Аудио #4Идентификатор : 5Формат : AACФормат/Информация : Advanced Audio CodecПрофиль формата : LCИдентификатор кодека : mp4a-40-2Продолжительность : 2 ч. 14 м.Вид битрейта : ПеременныйБитрейт : 128 Кбит/секМаксимальный битрейт : 138 Кбит/секКаналы : 2 каналаРасположение каналов : Front: L RЧастота : 48,0 КГцЧастота кадров : 46,875 кадров/сек (1024 SPF)Метод сжатия : С потерямиРазмер потока : 123 Мбайт (4%)Заголовок : Russian / VO, ChadovДата кодирования : UTC 2018-06-01 06:23:42Дата пометки : UTC 2018-06-01 06:23:46

Аудио #5Идентификатор : 6Формат : AACФормат/Информация : Advanced Audio CodecПрофиль формата : LCИдентификатор кодека : mp4a-40-2Продолжительность : 2 ч. 14 м.Вид битрейта : ПеременныйБитрейт : 128 Кбит/секМаксимальный битрейт : 138 Кбит/секКаналы : 2 каналаРасположение каналов : Front: L RЧастота : 48,0 КГцЧастота кадров : 46,875 кадров/сек (1024 SPF)Метод сжатия : С потерямиРазмер потока : 123 Мбайт (4%)Заголовок : English / OriginalДата кодирования : UTC 2018-06-01 06:23:44Дата пометки : UTC 2018-06-01 06:23:46

Текст #1Идентификатор : 7Формат : Timed TextИдентификатор кодека : tx3gПродолжительность : 2 ч. 9 м.Вид битрейта : ПеременныйБитрейт : 2 бит/секРазмер потока : 2,34 Кбайт (0%)Заголовок : Russian / ForcedForced : НетДата кодирования : UTC 2018-06-01 06:23:46Дата пометки : UTC 2018-06-01 06:23:46

Текст #2Идентификатор : 8Формат : Timed TextИдентификатор кодека : tx3gПродолжительность : 2 ч. 9 м.Вид битрейта : ПеременныйБитрейт : 72 бит/секРазмер потока : 68,4 Кбайт (0%)Заголовок : Russian / FullForced : НетДата кодирования : UTC 2018-06-01 06:23:46Дата пометки : UTC 2018-06-01 06:23:46

Текст #3Идентификатор : 9Формат : Timed TextИдентификатор кодека : tx3gПродолжительность : 2 ч. 9 м.Вид битрейта : ПеременныйБитрейт : 70 бит/секРазмер потока : 66,0 Кбайт (0%)Заголовок : Russian / Full (Perevodman)Forced : НетДата кодирования : UTC 2018-06-01 06:23:46Дата пометки : UTC 2018-06-01 06:23:46

Текст #4Идентификатор : 10Формат : Timed TextИдентификатор кодека : tx3gПродолжительность : 2 ч. 14 м.Вид битрейта : ПеременныйБитрейт : 3 бит/секРазмер потока : 2,74 Кбайт (0%)Заголовок : Ukrainian / ForcedForced : НетДата кодирования : UTC 2018-06-01 06:23:46Дата пометки : UTC 2018-06-01 06:23:46

Текст #5Идентификатор : 11Формат : Timed TextИдентификатор кодека : tx3gПродолжительность : 2 ч. 8 м.Вид битрейта : ПеременныйБитрейт : 50 бит/секРазмер потока : 47,0 Кбайт (0%)Заголовок : English / FullForced : НетДата кодирования : UTC 2018-06-01 06:23:46Дата пометки : UTC 2018-06-01 06:23:46

Текст #6Идентификатор : 12Формат : Timed TextИдентификатор кодека : tx3gПродолжительность : 2 ч. 14 м.Вид битрейта : ПеременныйБитрейт : 62 бит/секРазмер потока : 61,1 Кбайт (0%)Заголовок : English / SDHForced : НетДата кодирования : UTC 2018-06-01 06:23:46Дата пометки : UTC 2018-06-01 06:23:46


Трекер:  [ 02-Июн-2018 16:06 ]

  

Скачать .torrent

Размер .torrent файла 16 KB


Размер: 3.15 GB
Хэш (hash) релиза: 679559c2118573c4290636e337c47dfe6d4bb281

Еще никто не оставлял запись к записи скачать торрент [VIDEO] Оно It . Будь первым!

!Обратная связь