No Tomorrow | Noch mal mit Gefühl | Nordkurve

Скачать через торрент [VIDEO] Оно It бесплатно русская версия torrent активатор

Статистика раздачи
Размер:  604 MB   |    Зарегистрирован:  22 дня   |    .torrent скачан:  18 раз   |   
Раздают:  1  
   
загрузка...
 
Автор Сообщение

Galfimbul

avatar Galfimbul


Оно / It


Год выпуска: 2017
Страна: США, Канада
Жанр: ужасы, триллер
Продолжительность: 02:14:42
Перевод: русский Профессиональный (полное дублирование) Blu-Ray EUR
Субтитры: нет
Режиссер: Андрес Мускетти / Andrés Muschietti
В ролях: Джейден Либерер, Джереми Рэй Тейлор, Софиа Лиллис, Финн Вулфард, Чоузен Джейкобс, Джек Дилан Грейзер, Уайатт Олефф, Билл Скарсгард, Николас Хэмилтон, Джейк Сим и другие .
Описание: Когда в городке Дерри, штат Мэн, начинают пропадать дети, несколько ребят сталкиваются со своими величайшими страхами и вынуждены помериться силами со злобным клоуном Пеннивайзом, чьи проявления жестокости и список жертв уходят в глубь веков .
Релиз группы

Качество: BDRip / рип с Blu-ray disc 1080p [EUR]
Формат: MP4
Видео кодек: XviD
Аудио кодек: AAC
Видео: 480x200 AR:2.40 495 kbps 23.976 fps
Аудио: [Russian] 2ch 48 kHz 128 kbps - [Dub] Профессиональный (полное дублирование) Blu-Ray EUR
ОбщееПолное имя : D:\Torrents\It.2017.BDRip.XviD.480x.rip by Frost O.S.mp4Формат : MPEG-4Профиль формата : Base MediaИдентификатор кодека : isom (isom)Размер файла : 604 МбайтПродолжительность : 2 ч. 14 м.Режим общего битрейта : ПеременныйОбщий поток : 627 Кбит/секДата кодирования : UTC 2018-06-01 06:36:06Дата пометки : UTC 2018-06-01 06:36:06Программа кодирования : My MP4Box GUI 0.6.0.6

ВидеоИдентификатор : 1Формат : MPEG-4 VisualПрофиль формата : Advanced [email protected]Настройки формата : BVOP / Custom MatrixПараметр BVOP формата : ДаПараметр QPel формата : НетПараметр GMC формата : Без точки переходаПараметр матрицы формата : ВыборочнаяИдентификатор кодека : mp4v-20Продолжительность : 2 ч. 14 м.Вид битрейта : ПеременныйБитрейт : 495 Кбит/секМаксимальный битрейт : 3580 Кбит/секШирина : 480 пикселейВысота : 200 пикселейСоотношение сторон : 2,40:1Режим частоты кадров : ПеременныйЧастота кадров : 23,976 (24000/1001) кадра/секМинимальная частота кадров : 11,988 кадров/секМаксимальная частота кадров : 23,976 кадра/секЦветовое пространство : YUVСубдискретизация насыщенности : 4:2:0Битовая глубина : 8 битТип развёртки : ПрогрессивнаяМетод сжатия : С потерямиБит/(Пиксели*Кадры) : 0.215Размер потока : 477 Мбайт (79%)Заголовок : It.2017.BDRip.XviD.480x.rip by Frost O.SБиблиотека кодирования : XviD 1.2.1 (UTC 2008-12-04)Дата кодирования : UTC 2018-06-01 06:36:06Дата пометки : UTC 2018-06-01 06:36:11

АудиоИдентификатор : 2Формат : AACФормат/Информация : Advanced Audio CodecПрофиль формата : LCИдентификатор кодека : mp4a-40-2Продолжительность : 2 ч. 14 м.Вид битрейта : ПеременныйБитрейт : 128 Кбит/секМаксимальный битрейт : 138 Кбит/секКаналы : 2 каналаРасположение каналов : Front: L RЧастота : 48,0 КГцЧастота кадров : 46,875 кадров/сек (1024 SPF)Метод сжатия : С потерямиРазмер потока : 123 Мбайт (20%)Заголовок : Russian / Dub, Blu-Ray EURДата кодирования : UTC 2018-06-01 06:36:09Дата пометки : UTC 2018-06-01 06:36:11


Трекер:  [ 02-Июн-2018 16:06 ]

  

Скачать .torrent

Размер .torrent файла 12 KB


Размер: 604 MB
Хэш (hash) релиза: ad9a59f25a8a40fcaa11758f1860efc56adfb01c

Еще никто не оставлял запись к записи скачать торрент [VIDEO] Оно It . Будь первым!

!Обратная связь