Paul Sherman | Hailey Clearwater | Feuer und Blut Fire and Blood

Скачать через торрент [VIDEO] Тёмная башня The Dark Tower бесплатно русская версия torrent активатор

Статистика раздачи
Размер:  2.42 GB   |    Зарегистрирован:  22 дня   |    .torrent скачан:  20 раз   |   
Раздают:  1  
   
загрузка...
 
Автор Сообщение

Galfimbul

avatar Galfimbul


Тёмная башня / The Dark Tower


Год выпуска: 2017
Страна: США
Жанр: ужасы, фантастика, фэнтези, боевик, приключения, вестерн
Продолжительность: 01:34:44
Перевод №1: русский Профессиональный (полное дублирование) Blu-Ray EUR
Перевод №2: украинский Профессиональный (полное дублирование) Blu-Ray EUR
Перевод №3: русский Авторский (одноголосый, закадровый) Л.Володарский
Перевод №4: русский Авторский (одноголосый, закадровый) Ю.Живов
Оригинальная дорожка: Есть
Субтитры: русские (форсированные, полные), английские (Полные, SDH, SDH-Цветные)
Режиссер: Николай Арсель / Nikolaj Arcel
В ролях: Идрис Эльба, Мэттью МакКонахи, Том Тейлор, Клаудия Ким, Фрэн Кренц, Эбби Ли, Джеки Эрл Хейли, Кэтрин Уинник, Дэннис Хэйсбёрт, Майкл Барбиери и другие .
Описание: Наш мир — не единственный из существующих. Заклятые враги Роланд Дискейн, последний из ордена стрелков, и Уолтер О’Дим, известный также как Человек в черном, ведут извечную борьбу. На кону — мифическая Темная Башня, последний оплот и надежда вселенной, без которой мир будет повержен в полный хаос и разрушение. Силам добра и зла суждено столкнуться в последней схватке, ведь Роланд Дискейн — единственный, кому под силу остановить Человека в черном, прежде чем тот разрушит Темную Башню .
Релиз группы

Качество: BDRip / рип с Blu-ray disc 1080p [EUR]
Формат: MP4
Видео кодек: H.264
Аудио кодек: AAC
Видео: 1280x532 AR:2.41 3000 kbps 23.976 fps
Аудио №1: [Russian] 2ch 48 kHz 128 kbps - [Dub] Профессиональный (полное дублирование) Blu-Ray EUR
Аудио №2: [Ukrainian] 2ch 48 kHz 128 kbps - [Dub] Профессиональный (полное дублирование) Blu-Ray EUR
Аудио №3: [Russian] 2ch 48 kHz 128 kbps - [VO] Авторский (одноголосый, закадровый) Л.Володарский
Аудио №4: [Russian] 2ch 48 kHz 128 kbps - [VO] Авторский (одноголосый, закадровый) Ю.Живов
Аудио №5: [English] 2ch 48 kHz 128 kbps - Original
avs [info]: 1280x532p 1:1 @ 24000/1001 fps (cfr)
x264 [info]: using SAR=1/1
x264 [info]: using cpu capabilities: MMX2 SSE2Fast SSSE3 SSE4.2 AVX FMA3 BMI2 AVX2
x264 [info]: profile High, level 4.1

x264 [info]: frame I:1407 Avg QP:15.23 size: 95508
x264 [info]: frame P:34424 Avg QP:18.67 size: 30248
x264 [info]: frame B:100465 Avg QP:20.80 size: 9509
x264 [info]: consecutive B-frames: 4.8% 5.5% 9.7% 26.3% 16.4% 22.4% 5.9% 6.4% 1.7% 1.0%
x264 [info]: mb I I16..4: 6.2% 73.8% 20.0%
x264 [info]: mb P I16..4: 1.3% 10.1% 1.8% P16..4: 33.1% 36.4% 10.6% 0.0% 0.0% skip: 6.6%
x264 [info]: mb B I16..4: 0.1% 0.9% 0.3% B16..8: 34.7% 18.6% 2.7% direct: 4.8% skip:37.9% L0:43.7% L1:44.2% BI:12.1%
x264 [info]: 8x8 transform intra:74.8% inter:62.7%
x264 [info]: direct mvs spatial:98.3% temporal:1.7%
x264 [info]: coded y,uvDC,uvAC intra: 80.6% 78.2% 54.2% inter: 23.9% 18.3% 7.0%
x264 [info]: i16 v,h,dc,p: 23% 15% 4% 58%
x264 [info]: i8 v,h,dc,ddl,ddr,vr,hd,vl,hu: 12% 8% 7% 10% 13% 13% 13% 12% 13%
x264 [info]: i4 v,h,dc,ddl,ddr,vr,hd,vl,hu: 34% 7% 6% 7% 11% 10% 9% 8% 9%
x264 [info]: i8c dc,h,v,p: 34% 26% 21% 19%
x264 [info]: Weighted P-Frames: Y:14.9% UV:10.2%
x264 [info]: ref P L0: 50.2% 10.9% 16.7% 6.7% 5.0% 3.7% 3.0% 1.7% 1.7% 0.4% 0.0%
x264 [info]: ref B L0: 75.2% 11.0% 5.7% 3.0% 2.1% 1.7% 0.9% 0.3%
x264 [info]: ref B L1: 94.6% 5.4%
x264 [info]: kb/s:2998.85

encoded 136296 frames, 9.77 fps, 2998.86 kb/s
ОбщееПолное имя : D:\Torrents\The Dark Tower.2017.BDRip.x264.1280x.rip by Frost O.S.mp4Формат : MPEG-4Профиль формата : Base MediaИдентификатор кодека : isom (isom)Размер файла : 2,42 ГбайтПродолжительность : 1 ч. 34 м.Режим общего битрейта : ПеременныйОбщий поток : 3650 Кбит/секДата кодирования : UTC 2018-06-01 07:14:37Дата пометки : UTC 2018-06-01 07:14:37Программа кодирования : My MP4Box GUI 0.6.0.6

ВидеоИдентификатор : 1Формат : AVCФормат/Информация : Advanced Video CodecПрофиль формата : [email protected]Настройки формата : CABAC / 9 Ref FramesПараметр CABAC формата : ДаПараметр RefFrames формата : 9 кадровИдентификатор кодека : avc1Идентификатор кодека/Информация : Advanced Video CodingПродолжительность : 1 ч. 34 м.Битрейт : 3000 Кбит/секМаксимальный битрейт : 11,0 Мбит/секШирина : 1280 пикселейВысота : 532 пикселяСоотношение сторон : 2,40:1Режим частоты кадров : ПостоянныйЧастота кадров : 23,976 (24000/1001) кадра/секЦветовое пространство : YUVСубдискретизация насыщенности : 4:2:0Битовая глубина : 8 битТип развёртки : ПрогрессивнаяБит/(Пиксели*Кадры) : 0.184Размер потока : 1,98 Гбайт (82%)Заголовок : The Dark Tower.2017.BDRip.x264.1280x.rip by Frost O.SБиблиотека кодирования : x264 core 152 r2851 ba24899Настройки программы : cabac=1 / ref=9 / deblock=1:-3:-3 / analyse=0x3:0x113 / me=umh / subme=11 / psy=1 / psy_rd=0.90:0.00 / mixed_ref=1 / me_range=32 / chroma_me=1 / trellis=2 / 8x8dct=1 / cqm=0 / deadzone=21,11 / fast_pskip=0 / chroma_qp_offset=-2 / threads=6 / lookahead_threads=1 / sliced_threads=0 / nr=0 / decimate=0 / interlaced=0 / bluray_compat=0 / constrained_intra=0 / bframes=9 / b_pyramid=2 / b_adapt=2 / b_bias=0 / direct=3 / weightb=1 / open_gop=0 / weightp=2 / keyint=250 / keyint_min=23 / scenecut=40 / intra_refresh=0 / rc=2pass / mbtree=0 / bitrate=3000 / ratetol=1.0 / qcomp=0.70 / qpmin=0 / qpmax=69 / qpstep=4 / cplxblur=20.0 / qblur=0.5 / ip_ratio=1.40 / pb_ratio=1.30 / aq=2:0.80Дата кодирования : UTC 2018-05-29 11:18:58Дата пометки : UTC 2018-06-01 07:15:14Цветовой диапазон : LimitedОсновные цвета : BT.709Характеристики трансфера : BT.709Коэффициенты матрицы : BT.709

Аудио #1Идентификатор : 2Формат : AACФормат/Информация : Advanced Audio CodecПрофиль формата : LCИдентификатор кодека : mp4a-40-2Продолжительность : 1 ч. 34 м.Вид битрейта : ПеременныйБитрейт : 128 Кбит/секМаксимальный битрейт : 136 Кбит/секКаналы : 2 каналаРасположение каналов : Front: L RЧастота : 48,0 КГцЧастота кадров : 46,875 кадров/сек (1024 SPF)Метод сжатия : С потерямиРазмер потока : 86,7 Мбайт (4%)Заголовок : Russian / Dub, Blu-Ray EURДата кодирования : UTC 2018-06-01 07:14:54Дата пометки : UTC 2018-06-01 07:15:14

Аудио #2Идентификатор : 3Формат : AACФормат/Информация : Advanced Audio CodecПрофиль формата : LCИдентификатор кодека : mp4a-40-2Продолжительность : 1 ч. 34 м.Вид битрейта : ПеременныйБитрейт : 128 Кбит/секМаксимальный битрейт : 138 Кбит/секКаналы : 2 каналаРасположение каналов : Front: L RЧастота : 48,0 КГцЧастота кадров : 46,875 кадров/сек (1024 SPF)Метод сжатия : С потерямиРазмер потока : 86,7 Мбайт (4%)Заголовок : Ukrainian / Dub, Blu-Ray EURДата кодирования : UTC 2018-06-01 07:14:58Дата пометки : UTC 2018-06-01 07:15:14

Аудио #3Идентификатор : 4Формат : AACФормат/Информация : Advanced Audio CodecПрофиль формата : LCИдентификатор кодека : mp4a-40-2Продолжительность : 1 ч. 34 м.Вид битрейта : ПеременныйБитрейт : 128 Кбит/секМаксимальный битрейт : 141 Кбит/секКаналы : 2 каналаРасположение каналов : Front: L RЧастота : 48,0 КГцЧастота кадров : 46,875 кадров/сек (1024 SPF)Метод сжатия : С потерямиРазмер потока : 86,7 Мбайт (4%)Заголовок : Russian / VO, VolodarskiyДата кодирования : UTC 2018-06-01 07:15:08Дата пометки : UTC 2018-06-01 07:15:14

Аудио #4Идентификатор : 5Формат : AACФормат/Информация : Advanced Audio CodecПрофиль формата : LCИдентификатор кодека : mp4a-40-2Продолжительность : 1 ч. 34 м.Вид битрейта : ПеременныйБитрейт : 128 Кбит/секМаксимальный битрейт : 140 Кбит/секКаналы : 2 каналаРасположение каналов : Front: L RЧастота : 48,0 КГцЧастота кадров : 46,875 кадров/сек (1024 SPF)Метод сжатия : С потерямиРазмер потока : 86,7 Мбайт (4%)Заголовок : Russian / VO, ZhuvovДата кодирования : UTC 2018-06-01 07:15:09Дата пометки : UTC 2018-06-01 07:15:14

Аудио #5Идентификатор : 6Формат : AACФормат/Информация : Advanced Audio CodecПрофиль формата : LCИдентификатор кодека : mp4a-40-2Продолжительность : 1 ч. 34 м.Вид битрейта : ПеременныйБитрейт : 128 Кбит/секМаксимальный битрейт : 138 Кбит/секКаналы : 2 каналаРасположение каналов : Front: L RЧастота : 48,0 КГцЧастота кадров : 46,875 кадров/сек (1024 SPF)Метод сжатия : С потерямиРазмер потока : 86,7 Мбайт (4%)Заголовок : English / OriginalДата кодирования : UTC 2018-06-01 07:15:10Дата пометки : UTC 2018-06-01 07:15:14

Текст #1Идентификатор : 7Формат : Timed TextИдентификатор кодека : tx3gПродолжительность : 29 м. 36 с.Вид битрейта : ПеременныйБитрейт : 2 бит/секРазмер потока : 552 байт (0%)Заголовок : Russian / ForcedForced : НетДата кодирования : UTC 2018-06-01 07:15:14Дата пометки : UTC 2018-06-01 07:15:14

Текст #2Идентификатор : 8Формат : Timed TextИдентификатор кодека : tx3gПродолжительность : 1 ч. 27 м.Вид битрейта : ПеременныйБитрейт : 68 бит/секРазмер потока : 43,3 Кбайт (0%)Заголовок : Russian / FullForced : НетДата кодирования : UTC 2018-06-01 07:15:14Дата пометки : UTC 2018-06-01 07:15:14

Текст #3Идентификатор : 9Формат : Timed TextИдентификатор кодека : tx3gПродолжительность : 1 ч. 27 м.Вид битрейта : ПеременныйБитрейт : 46 бит/секРазмер потока : 29,3 Кбайт (0%)Заголовок : English / FullForced : НетДата кодирования : UTC 2018-06-01 07:15:14Дата пометки : UTC 2018-06-01 07:15:14

Текст #4Идентификатор : 10Формат : Timed TextИдентификатор кодека : tx3gПродолжительность : 1 ч. 34 м.Вид битрейта : ПеременныйБитрейт : 48 бит/секРазмер потока : 33,2 Кбайт (0%)Заголовок : English / SDHForced : НетДата кодирования : UTC 2018-06-01 07:15:14Дата пометки : UTC 2018-06-01 07:15:14

Текст #5Идентификатор : 11Формат : Timed TextИдентификатор кодека : tx3gПродолжительность : 1 ч. 34 м.Вид битрейта : ПеременныйБитрейт : 60 бит/секРазмер потока : 41,6 Кбайт (0%)Заголовок : English / SDH ColoredForced : НетДата кодирования : UTC 2018-06-01 07:15:14Дата пометки : UTC 2018-06-01 07:15:14


Трекер:  [ 02-Июн-2018 16:06 ]

  

Скачать .torrent

Размер .torrent файла 12 KB


Размер: 2.42 GB
Хэш (hash) релиза: 042c62f6c3a4a3018798d1bb1d7882104050e68b

Еще никто не оставлял запись к записи скачать торрент [VIDEO] Тёмная башня The Dark Tower . Будь первым!

!Обратная связь