6J Sam le pompier Saison 3 Episode 13 La cabane france 5 | 15.06.2018 | 10 min | Microsoft Security Essentials v4.5.216.0. | Khajoor Pe Atke (2018) Hindi Full Movie pDVDRip 1GB 350MB x264

Скачать через торрент [VIDEO] Тёмная башня The Dark Tower бесплатно русская версия torrent активатор

Статистика раздачи
Размер:  422 MB   |    Зарегистрирован:  22 дня   |    .torrent скачан:  20 раз   |   
Раздают:  1  
   
загрузка...
 
Автор Сообщение

Galfimbul

avatar Galfimbul


Тёмная башня / The Dark Tower


Год выпуска: 2017
Страна: США
Жанр: ужасы, фантастика, фэнтези, боевик, приключения, вестерн
Продолжительность: 01:34:44
Перевод: русский Профессиональный (полное дублирование) Blu-Ray EUR
Субтитры: нет
Режиссер: Николай Арсель / Nikolaj Arcel
В ролях: Идрис Эльба, Мэттью МакКонахи, Том Тейлор, Клаудия Ким, Фрэн Кренц, Эбби Ли, Джеки Эрл Хейли, Кэтрин Уинник, Дэннис Хэйсбёрт, Майкл Барбиери и другие .
Описание: Наш мир — не единственный из существующих. Заклятые враги Роланд Дискейн, последний из ордена стрелков, и Уолтер О’Дим, известный также как Человек в черном, ведут извечную борьбу. На кону — мифическая Темная Башня, последний оплот и надежда вселенной, без которой мир будет повержен в полный хаос и разрушение. Силам добра и зла суждено столкнуться в последней схватке, ведь Роланд Дискейн — единственный, кому под силу остановить Человека в черном, прежде чем тот разрушит Темную Башню .
Релиз группы

Качество: BDRip / рип с Blu-ray disc 1080p [EUR]
Формат: MP4
Видео кодек: XviD
Аудио кодек: AAC
Видео: 480x200 AR:2.40 491 kbps 23.976 fps
Аудио: [Russian] 2ch 48 kHz 128 kbps - [Dub] Профессиональный (полное дублирование) Blu-Ray EUR
ОбщееПолное имя : D:\Torrents\The Dark Tower.2017.BDRip.XviD.480x.rip by Frost O.S.mp4Формат : MPEG-4Профиль формата : Base MediaИдентификатор кодека : isom (isom)Размер файла : 422 МбайтПродолжительность : 1 ч. 34 м.Режим общего битрейта : ПеременныйОбщий поток : 622 Кбит/секДата кодирования : UTC 2018-06-01 07:23:48Дата пометки : UTC 2018-06-01 07:23:48Программа кодирования : My MP4Box GUI 0.6.0.6

ВидеоИдентификатор : 1Формат : MPEG-4 VisualПрофиль формата : Advanced [email protected]Настройки формата : BVOP / Custom MatrixПараметр BVOP формата : ДаПараметр QPel формата : НетПараметр GMC формата : Без точки переходаПараметр матрицы формата : ВыборочнаяИдентификатор кодека : mp4v-20Продолжительность : 1 ч. 34 м.Вид битрейта : ПеременныйБитрейт : 491 Кбит/секМаксимальный битрейт : 3234 Кбит/секШирина : 480 пикселейВысота : 200 пикселейСоотношение сторон : 2,40:1Режим частоты кадров : ПостоянныйЧастота кадров : 23,976 (24000/1001) кадра/секЦветовое пространство : YUVСубдискретизация насыщенности : 4:2:0Битовая глубина : 8 битТип развёртки : ПрогрессивнаяМетод сжатия : С потерямиБит/(Пиксели*Кадры) : 0.213Размер потока : 333 Мбайт (79%)Заголовок : The Dark Tower.2017.BDRip.XviD.480x.rip by Frost O.SБиблиотека кодирования : XviD 1.2.1 (UTC 2008-12-04)Дата кодирования : UTC 2018-06-01 07:23:48Дата пометки : UTC 2018-06-01 07:23:51

АудиоИдентификатор : 2Формат : AACФормат/Информация : Advanced Audio CodecПрофиль формата : LCИдентификатор кодека : mp4a-40-2Продолжительность : 1 ч. 34 м.Вид битрейта : ПеременныйБитрейт : 128 Кбит/секМаксимальный битрейт : 136 Кбит/секКаналы : 2 каналаРасположение каналов : Front: L RЧастота : 48,0 КГцЧастота кадров : 46,875 кадров/сек (1024 SPF)Метод сжатия : С потерямиРазмер потока : 86,7 Мбайт (21%)Заголовок : Russian / Dub, Blu-Ray EURДата кодирования : UTC 2018-06-01 07:23:51Дата пометки : UTC 2018-06-01 07:23:51


Трекер:  [ 02-Июн-2018 16:06 ]

  

Скачать .torrent

Размер .torrent файла 17 KB


Размер: 422 MB
Хэш (hash) релиза: 3804941779d148dc791580764037d4ca8fe1a9d4

Еще никто не оставлял запись к записи скачать торрент [VIDEO] Тёмная башня The Dark Tower . Будь первым!

!Обратная связь